<?xml version="1.0" standalone="no"?>
<!DOCTYPE svg PUBLIC "-//W3C//DTD SVG 1.1//EN" "http://www.w3.org/Graphics/SVG/1.1/DTD/svg11.dtd" >
<svg xmlns="http://www.w3.org/2000/svg" xmlns:xlink="http://www.w3.org/1999/xlink" version="1.1">
<metadata>
Created by FontForge 20170924 at Wed Jun 26 16:32:45 2019
 By www-data
Copyright (c) 2019 by Lynk &#38; Co. All rights reserved. Designed by Letters from Sweden and Geely Design.
</metadata>
<defs>
<font id="LynkcoType-Regular" horiz-adv-x="0" >
  <font-face 
    font-family="Lynkco Type"
    font-weight="400"
    font-stretch="normal"
    units-per-em="1000"
    panose-1="0 0 5 0 0 0 0 0 0 0"
    ascent="750"
    descent="-250"
    x-height="483"
    cap-height="680"
    bbox="-409 -239 1103 892"
    underline-thickness="50"
    underline-position="-100"
    unicode-range="U+0020-FB02"
  />
<missing-glyph horiz-adv-x="450" 
d="M50 780h350v-880h-350v880zM370 -70v820h-290v-820h290z" />
    <glyph glyph-name="fi" unicode="fi" horiz-adv-x="589" 
d="M219.5 634.5q-14.5 -10.5 -18.5 -30.5v-121h79v-64h-79v-419h-84v419h-67v64h67v110q0 58 34 89.5t88 31.5q26 0 44 -6v-65q-12 2 -26 2q-23 0 -37.5 -10.5zM417 483h83v-483h-83v483zM404 691h108v-101h-108v101z" />
    <glyph glyph-name="fl" unicode="fl" horiz-adv-x="589" 
d="M219.5 634.5q-14.5 -10.5 -18.5 -30.5v-121h79v-64h-79v-419h-84v419h-67v64h67v110q0 58 34 89.5t88 31.5q26 0 44 -6v-65q-12 2 -26 2q-23 0 -37.5 -10.5zM417 710h83v-710h-83v710z" />
    <glyph glyph-name=".notdef" horiz-adv-x="450" 
d="M50 780h350v-880h-350v880zM370 -70v820h-290v-820h290z" />
    <glyph glyph-name="space" unicode=" " horiz-adv-x="206" 
 />
    <glyph glyph-name="A" unicode="A" horiz-adv-x="625" 
d="M450 181h-280l-74 -181h-83l299 705h2l298 -705h-87zM420 255l-110 267l-109 -267h219z" />
    <glyph glyph-name="Aacute" unicode="&#xc1;" horiz-adv-x="625" 
d="M450 181h-280l-74 -181h-83l299 705h2l298 -705h-87zM420 255l-110 267l-109 -267h219zM350 862h94l-89 -119h-82z" />
    <glyph glyph-name="Abreve" unicode="&#x102;" horiz-adv-x="625" 
d="M450 181h-280l-74 -181h-83l299 705h2l298 -705h-87zM420 255l-110 267l-109 -267h219zM221 762.5q-34 31.5 -36 78.5h52q2 -21 21.5 -38.5t53.5 -17.5t53.5 17.5t22.5 38.5h51q-2 -47 -36 -78.5t-91 -31.5t-91 31.5z" />
    <glyph glyph-name="Acircumflex" unicode="&#xc2;" horiz-adv-x="625" 
d="M450 181h-280l-74 -181h-83l299 705h2l298 -705h-87zM420 255l-110 267l-109 -267h219zM378 743l-66 78l-65 -78h-78l93 119h101l92 -119h-77z" />
    <glyph glyph-name="Adieresis" unicode="&#xc4;" horiz-adv-x="625" 
d="M450 181h-280l-74 -181h-83l299 705h2l298 -705h-87zM420 255l-110 267l-109 -267h219zM160 850h98v-100h-98v100zM367 850h98v-100h-98v100z" />
    <glyph glyph-name="Agrave" unicode="&#xc0;" horiz-adv-x="625" 
d="M450 181h-280l-74 -181h-83l299 705h2l298 -705h-87zM420 255l-110 267l-109 -267h219zM180 862h94l77 -119h-82z" />
    <glyph glyph-name="Amacron" unicode="&#x100;" horiz-adv-x="625" 
d="M450 181h-280l-74 -181h-83l299 705h2l298 -705h-87zM420 255l-110 267l-109 -267h219zM188 826h248v-66h-248v66z" />
    <glyph glyph-name="Aogonek" unicode="&#x104;" horiz-adv-x="625" 
d="M581 -141q11 0 31 4v-46q-22 -9 -46 -9h-4q-45 0 -69.5 21t-24.5 59v3q0 27 19 54.5t55 51.5l5 3h-22l-75 181h-280l-74 -181h-83l299 705h2l298 -705l-29 -21q-23 -16 -36 -36t-13 -40v-3q0 -18 12 -29.5t31 -11.5h4zM420 255l-110 267l-109 -267h219z" />
    <glyph glyph-name="Aring" unicode="&#xc5;" horiz-adv-x="625" 
d="M450 181h-280l-74 -181h-83l289 681q-36 4 -60.5 30t-24.5 62q0 38 28 65t67 27t67.5 -27t28.5 -65q0 -35 -24 -61t-60 -31l288 -681h-87zM278 739q14 -14 34 -14t34.5 14t14.5 34q0 19 -14.5 33t-34.5 14t-34 -14t-14 -33q0 -20 14 -34zM420 255l-110 267l-109 -267h219
z" />
    <glyph glyph-name="Atilde" unicode="&#xc3;" horiz-adv-x="625" 
d="M450 181h-280l-74 -181h-83l299 705h2l298 -705h-87zM420 255l-110 267l-109 -267h219zM181 820.5q20 27.5 60 27.5q29 0 71 -20l21 -11q34 -16 48 -16q27 0 30 47h53q-3 -105 -80 -105q-28 0 -72 22l-22 11q-23 13 -45 13q-29 0 -32 -46h-54q2 50 22 77.5z" />
    <glyph glyph-name="AE" unicode="&#xc6;" horiz-adv-x="855" 
d="M790 77v-77h-375v229h-203l-123 -229h-89l368 680h417v-77h-283v-208h255v-77h-255v-241h288zM415 303v306l-164 -306h164z" />
    <glyph glyph-name="B" unicode="B" horiz-adv-x="575" 
d="M492 299.5q35 -42.5 35 -102.5v-11q0 -57 -28 -99.5t-75.5 -64.5t-104.5 -22h-221v680h203q52 0 95.5 -20.5t69 -59t25.5 -89.5v-12q0 -46 -24 -81.5t-65 -56.5q55 -19 90 -61.5zM183 609v-218h114q39 0 68.5 19.5t38.5 48.5q2 14 2 41q0 29 -2 41q-9 29 -38.5 48.5
t-69.5 19.5h-113zM440 199q0 34 -2 46q-12 34 -46 55.5t-80 21.5h-129v-250h129q46 0 80 22t46 58q2 14 2 47z" />
    <glyph glyph-name="C" unicode="C" horiz-adv-x="601" 
d="M203 25q-67 39 -106 113t-39 175v54q0 101 39 175t106 113t149 39h7q55 0 103.5 -18.5t84.5 -48.5v-91q-38 36 -84.5 59t-98.5 23h-7q-56 0 -99.5 -24t-70 -59.5t-34.5 -70.5q-3 -31 -3 -124q0 -91 3 -124q8 -36 34 -71.5t69.5 -59t100.5 -23.5h7q95 0 183 82v-91
q-36 -30 -84.5 -48.5t-103.5 -18.5h-7q-82 0 -149 39z" />
    <glyph glyph-name="Cacute" unicode="&#x106;" horiz-adv-x="601" 
d="M203 25q-67 39 -106 113t-39 175v54q0 101 39 175t106 113t149 39h7q55 0 103.5 -18.5t84.5 -48.5v-91q-38 36 -84.5 59t-98.5 23h-7q-56 0 -99.5 -24t-70 -59.5t-34.5 -70.5q-3 -31 -3 -124q0 -91 3 -124q8 -36 34 -71.5t69.5 -59t100.5 -23.5h7q95 0 183 82v-91
q-36 -30 -84.5 -48.5t-103.5 -18.5h-7q-82 0 -149 39zM396 856h94l-89 -119h-82z" />
    <glyph glyph-name="Ccaron" unicode="&#x10c;" horiz-adv-x="601" 
d="M203 25q-67 39 -106 113t-39 175v54q0 101 39 175t106 113t149 39h7q55 0 103.5 -18.5t84.5 -48.5v-91q-38 36 -84.5 59t-98.5 23h-7q-56 0 -99.5 -24t-70 -59.5t-34.5 -70.5q-3 -31 -3 -124q0 -91 3 -124q8 -36 34 -71.5t69.5 -59t100.5 -23.5h7q95 0 183 82v-91
q-36 -30 -84.5 -48.5t-103.5 -18.5h-7q-82 0 -149 39zM502 856l-92 -119h-101l-93 119h78l65 -78l66 78h77z" />
    <glyph glyph-name="Ccedilla" unicode="&#xc7;" horiz-adv-x="601" 
d="M257.5 594q-43.5 -24 -70 -59.5t-34.5 -70.5q-3 -31 -3 -124q0 -91 3 -124q8 -36 34 -71.5t69.5 -59t100.5 -23.5h7q95 0 183 82v-91q-36 -30 -83.5 -48.5t-102.5 -18.5l-21 -50q39 -5 63.5 -27t24.5 -57v-3q0 -43 -29.5 -65.5t-77.5 -22.5h-4q-23 0 -45.5 6t-37.5 17v45
q32 -24 78 -24h4q22 0 36.5 11.5t14.5 28.5v10q0 17 -16.5 28t-41.5 11h-36l40 94q-73 9 -131 50.5t-91 112t-33 162.5v54q0 101 39 175t106 113t149 39h7q55 0 103.5 -18.5t84.5 -48.5v-91q-38 36 -84.5 59t-98.5 23h-7q-56 0 -99.5 -24z" />
    <glyph glyph-name="Cdotaccent" unicode="&#x10a;" horiz-adv-x="601" 
d="M203 25q-67 39 -106 113t-39 175v54q0 101 39 175t106 113t149 39h7q55 0 103.5 -18.5t84.5 -48.5v-91q-38 36 -84.5 59t-98.5 23h-7q-56 0 -99.5 -24t-70 -59.5t-34.5 -70.5q-3 -31 -3 -124q0 -91 3 -124q8 -36 34 -71.5t69.5 -59t100.5 -23.5h7q95 0 183 82v-91
q-36 -30 -84.5 -48.5t-103.5 -18.5h-7q-82 0 -149 39zM305 844h109v-100h-109v100z" />
    <glyph glyph-name="D" unicode="D" horiz-adv-x="661" 
d="M466 642q63 -38 100 -109t37 -166v-54q0 -95 -37 -166t-100 -109t-139 -38h-229v680h229q76 0 139 -38zM511 340q0 90 -3 120q-8 33 -31.5 66t-62 55.5t-88.5 22.5h-141v-528h141q50 0 88.5 22.5t62 55.5t31.5 66q3 32 3 120z" />
    <glyph glyph-name="Eth" unicode="&#xd0;" horiz-adv-x="691" 
d="M496 642q63 -38 100 -109t37 -166v-54q0 -95 -37 -166t-100 -109t-139 -38h-229v308h-71v64h71v308h229q76 0 139 -38zM541 340q0 90 -3 120q-8 33 -31.5 66t-62 55.5t-88.5 22.5h-141v-232h161v-64h-161v-232h141q50 0 88.5 22.5t62 55.5t31.5 66q3 32 3 120z" />
    <glyph glyph-name="Dcaron" unicode="&#x10e;" horiz-adv-x="661" 
d="M466 642q63 -38 100 -109t37 -166v-54q0 -95 -37 -166t-100 -109t-139 -38h-229v680h229q76 0 139 -38zM511 340q0 90 -3 120q-8 33 -31.5 66t-62 55.5t-88.5 22.5h-141v-528h141q50 0 88.5 22.5t62 55.5t31.5 66q3 32 3 120zM464 862l-92 -119h-101l-93 119h78l65 -78
l66 78h77z" />
    <glyph glyph-name="Dcroat" unicode="&#x110;" horiz-adv-x="691" 
d="M496 642q63 -38 100 -109t37 -166v-54q0 -95 -37 -166t-100 -109t-139 -38h-229v308h-71v64h71v308h229q76 0 139 -38zM541 340q0 90 -3 120q-8 33 -31.5 66t-62 55.5t-88.5 22.5h-141v-232h161v-64h-161v-232h141q50 0 88.5 22.5t62 55.5t31.5 66q3 32 3 120z" />
    <glyph glyph-name="E" unicode="E" horiz-adv-x="539" 
d="M474 77v-77h-376v680h371v-77h-284v-208h255v-77h-255v-241h289z" />
    <glyph glyph-name="Eacute" unicode="&#xc9;" horiz-adv-x="539" 
d="M474 77v-77h-376v680h371v-77h-284v-208h255v-77h-255v-241h289zM321 862h94l-89 -119h-82z" />
    <glyph glyph-name="Ecaron" unicode="&#x11a;" horiz-adv-x="539" 
d="M474 77v-77h-376v680h371v-77h-284v-208h255v-77h-255v-241h289zM427 862l-92 -119h-101l-93 119h78l65 -78l66 78h77z" />
    <glyph glyph-name="Ecircumflex" unicode="&#xca;" horiz-adv-x="539" 
d="M474 77v-77h-376v680h371v-77h-284v-208h255v-77h-255v-241h289zM350 743l-66 78l-65 -78h-78l93 119h101l92 -119h-77z" />
    <glyph glyph-name="Edieresis" unicode="&#xcb;" horiz-adv-x="539" 
d="M474 77v-77h-376v680h371v-77h-284v-208h255v-77h-255v-241h289zM132 850h98v-100h-98v100zM339 850h98v-100h-98v100z" />
    <glyph glyph-name="Edotaccent" unicode="&#x116;" horiz-adv-x="539" 
d="M474 77v-77h-376v680h371v-77h-284v-208h255v-77h-255v-241h289zM230 850h109v-100h-109v100z" />
    <glyph glyph-name="Egrave" unicode="&#xc8;" horiz-adv-x="539" 
d="M474 77v-77h-376v680h371v-77h-284v-208h255v-77h-255v-241h289zM152 862h94l77 -119h-82z" />
    <glyph glyph-name="Emacron" unicode="&#x112;" horiz-adv-x="539" 
d="M474 77v-77h-376v680h371v-77h-284v-208h255v-77h-255v-241h289zM160 826h248v-66h-248v66z" />
    <glyph glyph-name="Eogonek" unicode="&#x118;" horiz-adv-x="539" 
d="M474 77v-77h-1l-29 -21q-23 -16 -36 -36t-13 -40v-3q0 -18 12 -29.5t31 -11.5h4q11 0 31 4v-46q-22 -9 -46 -9h-4q-45 0 -69.5 21t-24.5 59v3q0 27 19 54.5t55 51.5l5 3h-310v680h371v-77h-284v-208h255v-77h-255v-241h289z" />
    <glyph glyph-name="F" unicode="F" horiz-adv-x="519" 
d="M185 603v-219h261v-77h-261v-307h-87v680h371v-77h-284z" />
    <glyph glyph-name="G" unicode="G" horiz-adv-x="677" 
d="M621 332v-70q0 -80 -33.5 -143t-92.5 -98t-134 -35h-16q-80 0 -145.5 39.5t-103.5 113.5t-38 174v54q0 100 38 174t103.5 113.5t145.5 39.5h7q88 0 158 -48.5t102 -134.5h-89q-23 49 -68 78t-103 29h-7q-53 0 -93.5 -24t-65.5 -59.5t-33 -70.5q-3 -31 -3 -124
q0 -92 3 -125q8 -35 33 -70.5t66 -59t93 -23.5h16q53 0 91.5 24t60 59t25.5 68v46h-180v73h263z" />
    <glyph glyph-name="Gbreve" unicode="&#x11e;" horiz-adv-x="677" 
d="M621 332v-70q0 -80 -33.5 -143t-92.5 -98t-134 -35h-16q-80 0 -145.5 39.5t-103.5 113.5t-38 174v54q0 100 38 174t103.5 113.5t145.5 39.5h7q88 0 158 -48.5t102 -134.5h-89q-23 49 -68 78t-103 29h-7q-53 0 -93.5 -24t-65.5 -59.5t-33 -70.5q-3 -31 -3 -124
q0 -92 3 -125q8 -35 33 -70.5t66 -59t93 -23.5h16q53 0 91.5 24t60 59t25.5 68v46h-180v73h263zM260 762.5q-34 31.5 -36 78.5h52q2 -21 21.5 -38.5t53.5 -17.5t53.5 17.5t22.5 38.5h51q-2 -47 -36 -78.5t-91 -31.5t-91 31.5z" />
    <glyph glyph-name="uni0122" unicode="&#x122;" horiz-adv-x="677" 
d="M621 332v-70q0 -80 -33.5 -143t-92.5 -98t-134 -35h-16q-80 0 -145.5 39.5t-103.5 113.5t-38 174v54q0 100 38 174t103.5 113.5t145.5 39.5h7q88 0 158 -48.5t102 -134.5h-89q-23 49 -68 78t-103 29h-7q-53 0 -93.5 -24t-65.5 -59.5t-33 -70.5q-3 -31 -3 -124
q0 -92 3 -125q8 -35 33 -70.5t66 -59t93 -23.5h16q53 0 91.5 24t60 59t25.5 68v46h-180v73h263zM312 -66h78v-84l-77 -65h-1v149z" />
    <glyph glyph-name="Gdotaccent" unicode="&#x120;" horiz-adv-x="677" 
d="M621 332v-70q0 -80 -33.5 -143t-92.5 -98t-134 -35h-16q-80 0 -145.5 39.5t-103.5 113.5t-38 174v54q0 100 38 174t103.5 113.5t145.5 39.5h7q88 0 158 -48.5t102 -134.5h-89q-23 49 -68 78t-103 29h-7q-53 0 -93.5 -24t-65.5 -59.5t-33 -70.5q-3 -31 -3 -124
q0 -92 3 -125q8 -35 33 -70.5t66 -59t93 -23.5h16q53 0 91.5 24t60 59t25.5 68v46h-180v73h263zM297 850h109v-100h-109v100z" />
    <glyph glyph-name="H" unicode="H" horiz-adv-x="690" 
d="M592 680v-680h-87v318h-320v-318h-87v680h87v-285h320v285h87z" />
    <glyph glyph-name="Hbar" unicode="&#x126;" horiz-adv-x="690" 
d="M640 506h-48v-506h-87v318h-320v-318h-87v506h-47v55h47v119h87v-119h320v119h87v-119h48v-55zM505 506h-320v-111h320v111z" />
    <glyph glyph-name="I" unicode="I" horiz-adv-x="283" 
d="M98 680h87v-680h-87v680z" />
    <glyph glyph-name="Iacute" unicode="&#xcd;" horiz-adv-x="283" 
d="M98 680h87v-680h-87v680zM179 862h94l-89 -119h-82z" />
    <glyph glyph-name="Icircumflex" unicode="&#xce;" horiz-adv-x="283" 
d="M98 680h87v-680h-87v680zM207 743l-66 78l-65 -78h-78l93 119h101l92 -119h-77z" />
    <glyph glyph-name="Idieresis" unicode="&#xcf;" horiz-adv-x="283" 
d="M98 680h87v-680h-87v680zM-10 850h98v-100h-98v100zM197 850h98v-100h-98v100z" />
    <glyph glyph-name="Idotaccent" unicode="&#x130;" horiz-adv-x="283" 
d="M98 680h87v-680h-87v680zM88 850h109v-100h-109v100z" />
    <glyph glyph-name="Igrave" unicode="&#xcc;" horiz-adv-x="283" 
d="M98 680h87v-680h-87v680zM10 862h94l77 -119h-82z" />
    <glyph glyph-name="Imacron" unicode="&#x12a;" horiz-adv-x="283" 
d="M98 680h87v-680h-87v680zM18 826h248v-66h-248v66z" />
    <glyph glyph-name="Iogonek" unicode="&#x12e;" horiz-adv-x="283" 
d="M120 -57q-13 -20 -13 -40v-3q0 -18 12 -29.5t31 -11.5h4q11 0 31 4v-46q-22 -9 -46 -9h-4q-45 0 -69.5 21t-24.5 59v3q0 27 19 54.5t55 51.5l5 3h-22v680h87v-680l-29 -21q-23 -16 -36 -36z" />
    <glyph glyph-name="J" unicode="J" horiz-adv-x="403" 
d="M71.5 -9q-28.5 5 -47.5 13v75q42 -17 90 -17h6q45 0 71 21t35 51v546h87v-519q0 -78 -48.5 -126.5t-132.5 -48.5h-6q-26 0 -54.5 5z" />
    <glyph glyph-name="K" unicode="K" horiz-adv-x="606" 
d="M490 0l-305 355v-355h-87v680h87v-323l285 323h104l-288 -321l312 -359h-108z" />
    <glyph glyph-name="uni0136" unicode="&#x136;" horiz-adv-x="606" 
d="M490 0l-305 355v-355h-87v680h87v-323l285 323h104l-288 -321l312 -359h-108zM264 -66h78v-84l-77 -65h-1v149z" />
    <glyph glyph-name="L" unicode="L" horiz-adv-x="486" 
d="M453 77v-77h-355v680h87v-603h268z" />
    <glyph glyph-name="Lacute" unicode="&#x139;" horiz-adv-x="486" 
d="M453 77v-77h-355v680h87v-603h268zM179 862h94l-89 -119h-82z" />
    <glyph glyph-name="Lcaron" unicode="&#x13d;" horiz-adv-x="486" 
d="M453 77v-77h-355v680h87v-603h268zM279 680h69l-42 -177h-64z" />
    <glyph glyph-name="uni013B" unicode="&#x13b;" horiz-adv-x="486" 
d="M453 77v-77h-355v680h87v-603h268zM238 -66h78v-84l-77 -65h-1v149z" />
    <glyph glyph-name="Lslash" unicode="&#x141;" horiz-adv-x="486" 
d="M453 77v-77h-355v260l-73 -44v65l73 44v355h87v-302l138 84v-65l-138 -84v-236h268z" />
    <glyph glyph-name="M" unicode="M" horiz-adv-x="801" 
d="M703 695v-695h-83v467l-218 -271h-2l-219 272v-468h-83v695h2l301 -374l300 374h2z" />
    <glyph glyph-name="N" unicode="N" horiz-adv-x="715" 
d="M617 680v-695h-2l-434 495v-480h-83v695h2l434 -496v481h83z" />
    <glyph glyph-name="Nacute" unicode="&#x143;" horiz-adv-x="715" 
d="M617 680v-695h-2l-434 495v-480h-83v695h2l434 -496v481h83zM395 862h94l-89 -119h-82z" />
    <glyph glyph-name="Ncaron" unicode="&#x147;" horiz-adv-x="715" 
d="M617 680v-695h-2l-434 495v-480h-83v695h2l434 -496v481h83zM500 862l-92 -119h-101l-93 119h78l65 -78l66 78h77z" />
    <glyph glyph-name="uni0145" unicode="&#x145;" horiz-adv-x="715" 
d="M617 680v-695h-2l-434 495v-480h-83v695h2l434 -496v481h83zM319 -66h78v-84l-77 -65h-1v149z" />
    <glyph glyph-name="Eng" unicode="&#x14a;" horiz-adv-x="715" 
d="M375.5 -209q-28.5 5 -47.5 13v75q43 -17 90 -17h7q51 0 78 29.5t27 78.5v112l-349 398v-480h-83v695h2l434 -496v481h83v-715q0 -81 -48.5 -130t-132.5 -49h-6q-26 0 -54.5 5z" />
    <glyph glyph-name="Ntilde" unicode="&#xd1;" horiz-adv-x="715" 
d="M617 680v-695h-2l-434 495v-480h-83v695h2l434 -496v481h83zM227 820.5q20 27.5 60 27.5q29 0 71 -20l21 -11q34 -16 48 -16q27 0 30 47h53q-3 -105 -80 -105q-28 0 -72 22l-22 11q-23 13 -45 13q-29 0 -32 -46h-54q2 50 22 77.5z" />
    <glyph glyph-name="O" unicode="O" horiz-adv-x="697" 
d="M199.5 25.5q-65.5 39.5 -103.5 113.5t-38 174v54q0 100 38 174t103.5 113.5t145.5 39.5h7q79 0 144.5 -39.5t104 -113.5t38.5 -174v-54q0 -100 -38.5 -174t-104 -113.5t-144.5 -39.5h-7q-80 0 -145.5 39.5zM352 62q52 0 93 23.5t66 59t33 71.5q3 33 3 124q0 93 -3 124
q-8 36 -33 71.5t-66 59t-93 23.5h-7q-53 0 -93.5 -24t-65.5 -59.5t-33 -70.5q-3 -31 -3 -124q0 -91 3 -124q8 -35 33 -70.5t65.5 -59.5t93.5 -24h7z" />
    <glyph glyph-name="Oacute" unicode="&#xd3;" horiz-adv-x="697" 
d="M199.5 25.5q-65.5 39.5 -103.5 113.5t-38 174v54q0 100 38 174t103.5 113.5t145.5 39.5h7q79 0 144.5 -39.5t104 -113.5t38.5 -174v-54q0 -100 -38.5 -174t-104 -113.5t-144.5 -39.5h-7q-80 0 -145.5 39.5zM352 62q52 0 93 23.5t66 59t33 71.5q3 33 3 124q0 93 -3 124
q-8 36 -33 71.5t-66 59t-93 23.5h-7q-53 0 -93.5 -24t-65.5 -59.5t-33 -70.5q-3 -31 -3 -124q0 -91 3 -124q8 -35 33 -70.5t65.5 -59.5t93.5 -24h7zM386 862h94l-89 -119h-82z" />
    <glyph glyph-name="Ocircumflex" unicode="&#xd4;" horiz-adv-x="697" 
d="M199.5 25.5q-65.5 39.5 -103.5 113.5t-38 174v54q0 100 38 174t103.5 113.5t145.5 39.5h7q79 0 144.5 -39.5t104 -113.5t38.5 -174v-54q0 -100 -38.5 -174t-104 -113.5t-144.5 -39.5h-7q-80 0 -145.5 39.5zM352 62q52 0 93 23.5t66 59t33 71.5q3 33 3 124q0 93 -3 124
q-8 36 -33 71.5t-66 59t-93 23.5h-7q-53 0 -93.5 -24t-65.5 -59.5t-33 -70.5q-3 -31 -3 -124q0 -91 3 -124q8 -35 33 -70.5t65.5 -59.5t93.5 -24h7zM414 743l-66 78l-65 -78h-78l93 119h101l92 -119h-77z" />
    <glyph glyph-name="Odieresis" unicode="&#xd6;" horiz-adv-x="697" 
d="M199.5 25.5q-65.5 39.5 -103.5 113.5t-38 174v54q0 100 38 174t103.5 113.5t145.5 39.5h7q79 0 144.5 -39.5t104 -113.5t38.5 -174v-54q0 -100 -38.5 -174t-104 -113.5t-144.5 -39.5h-7q-80 0 -145.5 39.5zM352 62q52 0 93 23.5t66 59t33 71.5q3 33 3 124q0 93 -3 124
q-8 36 -33 71.5t-66 59t-93 23.5h-7q-53 0 -93.5 -24t-65.5 -59.5t-33 -70.5q-3 -31 -3 -124q0 -91 3 -124q8 -35 33 -70.5t65.5 -59.5t93.5 -24h7zM196 850h98v-100h-98v100zM403 850h98v-100h-98v100z" />
    <glyph glyph-name="Ograve" unicode="&#xd2;" horiz-adv-x="697" 
d="M199.5 25.5q-65.5 39.5 -103.5 113.5t-38 174v54q0 100 38 174t103.5 113.5t145.5 39.5h7q79 0 144.5 -39.5t104 -113.5t38.5 -174v-54q0 -100 -38.5 -174t-104 -113.5t-144.5 -39.5h-7q-80 0 -145.5 39.5zM352 62q52 0 93 23.5t66 59t33 71.5q3 33 3 124q0 93 -3 124
q-8 36 -33 71.5t-66 59t-93 23.5h-7q-53 0 -93.5 -24t-65.5 -59.5t-33 -70.5q-3 -31 -3 -124q0 -91 3 -124q8 -35 33 -70.5t65.5 -59.5t93.5 -24h7zM216 862h94l77 -119h-82z" />
    <glyph glyph-name="Ohungarumlaut" unicode="&#x150;" horiz-adv-x="697" 
d="M199.5 25.5q-65.5 39.5 -103.5 113.5t-38 174v54q0 100 38 174t103.5 113.5t145.5 39.5h7q79 0 144.5 -39.5t104 -113.5t38.5 -174v-54q0 -100 -38.5 -174t-104 -113.5t-144.5 -39.5h-7q-80 0 -145.5 39.5zM352 62q52 0 93 23.5t66 59t33 71.5q3 33 3 124q0 93 -3 124
q-8 36 -33 71.5t-66 59t-93 23.5h-7q-53 0 -93.5 -24t-65.5 -59.5t-33 -70.5q-3 -31 -3 -124q0 -91 3 -124q8 -35 33 -70.5t65.5 -59.5t93.5 -24h7zM297 862h79l-85 -119h-71zM455 862h80l-86 -119h-71z" />
    <glyph glyph-name="Omacron" unicode="&#x14c;" horiz-adv-x="697" 
d="M199.5 25.5q-65.5 39.5 -103.5 113.5t-38 174v54q0 100 38 174t103.5 113.5t145.5 39.5h7q79 0 144.5 -39.5t104 -113.5t38.5 -174v-54q0 -100 -38.5 -174t-104 -113.5t-144.5 -39.5h-7q-80 0 -145.5 39.5zM352 62q52 0 93 23.5t66 59t33 71.5q3 33 3 124q0 93 -3 124
q-8 36 -33 71.5t-66 59t-93 23.5h-7q-53 0 -93.5 -24t-65.5 -59.5t-33 -70.5q-3 -31 -3 -124q0 -91 3 -124q8 -35 33 -70.5t65.5 -59.5t93.5 -24h7zM224 826h248v-66h-248v66z" />
    <glyph glyph-name="Oslash" unicode="&#xd8;" horiz-adv-x="697" 
d="M618.5 498q20.5 -59 20.5 -131v-54q0 -100 -38.5 -174t-104 -113.5t-144.5 -39.5h-7q-101 0 -176 61l-33 -47h-58l57 80q-37 43 -57 102t-20 131v54q0 100 38 174t103.5 113.5t145.5 39.5h7q101 0 176 -61l33 47h57l-57 -80q37 -43 57.5 -102zM183 148l298 420
q-53 50 -129 50h-7q-53 0 -93.5 -24t-65.5 -59.5t-33 -70.5q-3 -31 -3 -124q0 -91 3 -124q8 -35 30 -68zM547 340q0 93 -3 124q-8 36 -31 68l-298 -420q55 -50 130 -50h7q52 0 93 23.5t66 59t33 71.5q3 33 3 124z" />
    <glyph glyph-name="Otilde" unicode="&#xd5;" horiz-adv-x="697" 
d="M199.5 25.5q-65.5 39.5 -103.5 113.5t-38 174v54q0 100 38 174t103.5 113.5t145.5 39.5h7q79 0 144.5 -39.5t104 -113.5t38.5 -174v-54q0 -100 -38.5 -174t-104 -113.5t-144.5 -39.5h-7q-80 0 -145.5 39.5zM352 62q52 0 93 23.5t66 59t33 71.5q3 33 3 124q0 93 -3 124
q-8 36 -33 71.5t-66 59t-93 23.5h-7q-53 0 -93.5 -24t-65.5 -59.5t-33 -70.5q-3 -31 -3 -124q0 -91 3 -124q8 -35 33 -70.5t65.5 -59.5t93.5 -24h7zM217 820.5q20 27.5 60 27.5q29 0 71 -20l21 -11q34 -16 48 -16q27 0 30 47h53q-3 -105 -80 -105q-28 0 -72 22l-22 11
q-23 13 -45 13q-29 0 -32 -46h-54q2 50 22 77.5z" />
    <glyph glyph-name="OE" unicode="&#x152;" horiz-adv-x="963" 
d="M898 77v-77h-375v54q-35 -33 -80 -50.5t-95 -17.5h-7q-79 0 -143.5 39.5t-102 113.5t-37.5 174v54q0 100 37.5 174t102 113.5t143.5 39.5h7q50 0 95 -17.5t80 -51.5v55h370v-77h-283v-208h255v-77h-255v-241h288zM453.5 91q44.5 29 69.5 72v354q-25 43 -69 72t-102 29h-7
q-53 0 -93.5 -24t-65.5 -59.5t-33 -70.5q-3 -31 -3 -124q0 -91 3 -124q8 -35 33 -70.5t65.5 -59.5t93.5 -24h7q57 0 101.5 29z" />
    <glyph glyph-name="P" unicode="P" horiz-adv-x="564" 
d="M413 656q48 -24 77.5 -68.5t29.5 -103.5v-10q0 -59 -29.5 -103.5t-77.5 -68.5t-103 -24h-126v-278h-86v680h212q55 0 103 -24zM432 479q0 24 -2 42q-10 36 -43.5 59.5t-78.5 23.5h-124v-250h124q45 0 78.5 23.5t43.5 59.5q2 18 2 42z" />
    <glyph glyph-name="Thorn" unicode="&#xde;" horiz-adv-x="564" 
d="M413 524q48 -24 77 -68.5t29 -103.5v-10q0 -59 -29 -103.5t-77 -68.5t-102 -24h-126v-146h-87v680h87v-132h126q54 0 102 -24zM432 347q0 24 -2 42q-9 36 -42.5 59.5t-79.5 23.5h-123v-250h123q46 0 79.5 23.5t42.5 59.5q2 18 2 42z" />
    <glyph glyph-name="Q" unicode="Q" horiz-adv-x="697" 
d="M614.5 169.5q-24.5 -63.5 -69.5 -106.5l80 -113h-88l-49 70q-63 -34 -136 -34h-7q-80 0 -145.5 39.5t-103.5 113.5t-38 174v54q0 100 38 174t103.5 113.5t145.5 39.5h7q79 0 144.5 -39.5t104 -113.5t38.5 -174v-54q0 -80 -24.5 -143.5zM547 340q0 93 -3 124
q-8 36 -33 71.5t-66 59t-93 23.5h-7q-53 0 -93.5 -24t-65.5 -59.5t-33 -70.5q-3 -31 -3 -124q0 -91 3 -124q8 -35 33 -70.5t65.5 -59.5t93.5 -24h7q47 0 91 22l-98 139h88l66 -93q35 39 45 86q3 33 3 124z" />
    <glyph glyph-name="R" unicode="R" horiz-adv-x="584" 
d="M464 0l-280 357v-357h-86v680h197q54 0 101.5 -23t76 -66t28.5 -101v-9q0 -75 -49.5 -124.5t-122.5 -58.5l238 -298h-103zM294 360q43 0 75.5 22.5t42.5 57.5q2 16 2 41q0 24 -2 42q-10 37 -42.5 59t-75.5 22h-110v-244h110z" />
    <glyph glyph-name="Racute" unicode="&#x154;" horiz-adv-x="584" 
d="M464 0l-280 357v-357h-86v680h197q54 0 101.5 -23t76 -66t28.5 -101v-9q0 -75 -49.5 -124.5t-122.5 -58.5l238 -298h-103zM294 360q43 0 75.5 22.5t42.5 57.5q2 16 2 41q0 24 -2 42q-10 37 -42.5 59t-75.5 22h-110v-244h110zM323 862h94l-89 -119h-82z" />
    <glyph glyph-name="Rcaron" unicode="&#x158;" horiz-adv-x="584" 
d="M464 0l-280 357v-357h-86v680h197q54 0 101.5 -23t76 -66t28.5 -101v-9q0 -75 -49.5 -124.5t-122.5 -58.5l238 -298h-103zM294 360q43 0 75.5 22.5t42.5 57.5q2 16 2 41q0 24 -2 42q-10 37 -42.5 59t-75.5 22h-110v-244h110zM428 862l-92 -119h-101l-93 119h78l65 -78
l66 78h77z" />
    <glyph glyph-name="uni0156" unicode="&#x156;" horiz-adv-x="584" 
d="M464 0l-280 357v-357h-86v680h197q54 0 101.5 -23t76 -66t28.5 -101v-9q0 -75 -49.5 -124.5t-122.5 -58.5l238 -298h-103zM294 360q43 0 75.5 22.5t42.5 57.5q2 16 2 41q0 24 -2 42q-10 37 -42.5 59t-75.5 22h-110v-244h110zM247 -66h78v-84l-77 -65h-1v149z" />
    <glyph glyph-name="S" unicode="S" horiz-adv-x="533" 
d="M158 10.5q-50 24.5 -80.5 67.5t-32.5 98h84q6 -53 45 -85.5t95 -32.5h2q61 0 97 38.5t31 101.5q-8 24 -29.5 45.5t-66.5 50.5l-111 69q-57 36 -87.5 71t-30.5 89v3q0 47 24.5 85t66.5 60t92 22h6q62 0 113 -32.5t80 -80.5l-63 -44q-28 40 -59.5 62.5t-73.5 22.5h-2
q-47 0 -76.5 -31t-25.5 -80q6 -20 24 -36t60 -43l110 -68q63 -39 96.5 -78.5t33.5 -102.5v-3q0 -55 -27 -99t-74 -69t-107 -25h-3q-61 0 -111 24.5z" />
    <glyph glyph-name="Sacute" unicode="&#x15a;" horiz-adv-x="533" 
d="M158 10.5q-50 24.5 -80.5 67.5t-32.5 98h84q6 -53 45 -85.5t95 -32.5h2q61 0 97 38.5t31 101.5q-8 24 -29.5 45.5t-66.5 50.5l-111 69q-57 36 -87.5 71t-30.5 89v3q0 47 24.5 85t66.5 60t92 22h6q62 0 113 -32.5t80 -80.5l-63 -44q-28 40 -59.5 62.5t-73.5 22.5h-2
q-47 0 -76.5 -31t-25.5 -80q6 -20 24 -36t60 -43l110 -68q63 -39 96.5 -78.5t33.5 -102.5v-3q0 -55 -27 -99t-74 -69t-107 -25h-3q-61 0 -111 24.5zM304 862h94l-89 -119h-82z" />
    <glyph glyph-name="Scaron" unicode="&#x160;" horiz-adv-x="533" 
d="M158 10.5q-50 24.5 -80.5 67.5t-32.5 98h84q6 -53 45 -85.5t95 -32.5h2q61 0 97 38.5t31 101.5q-8 24 -29.5 45.5t-66.5 50.5l-111 69q-57 36 -87.5 71t-30.5 89v3q0 47 24.5 85t66.5 60t92 22h6q62 0 113 -32.5t80 -80.5l-63 -44q-28 40 -59.5 62.5t-73.5 22.5h-2
q-47 0 -76.5 -31t-25.5 -80q6 -20 24 -36t60 -43l110 -68q63 -39 96.5 -78.5t33.5 -102.5v-3q0 -55 -27 -99t-74 -69t-107 -25h-3q-61 0 -111 24.5zM410 862l-92 -119h-101l-93 119h78l65 -78l66 78h77z" />
    <glyph glyph-name="Scedilla" unicode="&#x15e;" horiz-adv-x="533" 
d="M446.5 284.5q33.5 -39.5 33.5 -102.5v-3q0 -52 -24.5 -95t-68.5 -69t-100 -29l-21 -50q39 -5 63.5 -27t24.5 -57v-3q0 -43 -29.5 -65.5t-77.5 -22.5h-4q-23 0 -45.5 6t-37.5 17v45q32 -24 78 -24h4q22 0 36.5 11.5t14.5 28.5v10q0 17 -16.5 28t-41.5 11h-36l40 94
q-82 9 -136 60.5t-58 127.5h84q6 -53 45 -85.5t95 -32.5h2q61 0 97 38.5t31 101.5q-8 24 -29.5 45.5t-66.5 50.5l-111 69q-57 36 -87.5 71t-30.5 89v3q0 47 24.5 85t66.5 60t92 22h6q62 0 113 -32.5t80 -80.5l-63 -44q-28 40 -59.5 62.5t-73.5 22.5h-2q-47 0 -76.5 -31
t-25.5 -80q6 -20 24 -36t60 -43l110 -68q63 -39 96.5 -78.5z" />
    <glyph glyph-name="uni0218" unicode="&#x218;" horiz-adv-x="533" 
d="M158 10.5q-50 24.5 -80.5 67.5t-32.5 98h84q6 -53 45 -85.5t95 -32.5h2q61 0 97 38.5t31 101.5q-8 24 -29.5 45.5t-66.5 50.5l-111 69q-57 36 -87.5 71t-30.5 89v3q0 47 24.5 85t66.5 60t92 22h6q62 0 113 -32.5t80 -80.5l-63 -44q-28 40 -59.5 62.5t-73.5 22.5h-2
q-47 0 -76.5 -31t-25.5 -80q6 -20 24 -36t60 -43l110 -68q63 -39 96.5 -78.5t33.5 -102.5v-3q0 -55 -27 -99t-74 -69t-107 -25h-3q-61 0 -111 24.5zM228 -66h78v-84l-77 -65h-1v149z" />
    <glyph glyph-name="uni1E9E" unicode="&#x1e9e;" horiz-adv-x="656" 
d="M563 340.5q53 -51.5 53 -129.5v-7q0 -62 -28 -109.5t-77.5 -73.5t-112.5 -26h-6q-26 0 -55 3t-45 9v69q15 -4 41.5 -7.5t47.5 -3.5h5q55 0 92 27t49 67q2 24 2 47t-2 47q-21 59 -146 110l-60 25v2l123 213h-262v-603h-84v680h471l-145 -251q86 -37 139 -88.5z" />
    <glyph glyph-name="T" unicode="T" horiz-adv-x="522" 
d="M484 603h-180v-603h-86v603h-180v77h446v-77z" />
    <glyph glyph-name="Tbar" unicode="&#x166;" horiz-adv-x="522" 
d="M304 603v-231h117v-64h-117v-308h-86v308h-116v64h116v231h-180v77h446v-77h-180z" />
    <glyph glyph-name="Tcaron" unicode="&#x164;" horiz-adv-x="522" 
d="M484 603h-180v-603h-86v603h-180v77h446v-77zM404 862l-92 -119h-101l-93 119h78l65 -78l66 78h77z" />
    <glyph glyph-name="uni0162" unicode="&#x162;" horiz-adv-x="522" 
d="M287 0l-27 -64q39 -5 63.5 -27t24.5 -57v-3q0 -43 -29.5 -65.5t-77.5 -22.5h-4q-23 0 -45.5 6t-37.5 17v45q31 -24 78 -24h4q22 0 36.5 11.5t14.5 28.5v10q0 17 -16.5 28t-41.5 11h-36l45 106h-20v603h-180v77h446v-77h-180v-603h-17z" />
    <glyph glyph-name="uni021A" unicode="&#x21a;" horiz-adv-x="522" 
d="M484 603h-180v-603h-86v603h-180v77h446v-77zM222 -66h78v-84l-77 -65h-1v149z" />
    <glyph glyph-name="U" unicode="U" horiz-adv-x="679" 
d="M211.5 18.5q-56.5 32.5 -89 87.5t-32.5 119v455h87v-485q5 -30 25.5 -60.5t54.5 -51.5t79 -21h7q45 0 79 21t54.5 51.5t25.5 60.5v485h87v-455q0 -64 -32.5 -119t-89 -87.5t-124.5 -32.5h-7q-68 0 -124.5 32.5z" />
    <glyph glyph-name="Uacute" unicode="&#xda;" horiz-adv-x="679" 
d="M211.5 18.5q-56.5 32.5 -89 87.5t-32.5 119v455h87v-485q5 -30 25.5 -60.5t54.5 -51.5t79 -21h7q45 0 79 21t54.5 51.5t25.5 60.5v485h87v-455q0 -64 -32.5 -119t-89 -87.5t-124.5 -32.5h-7q-68 0 -124.5 32.5zM377 862h94l-89 -119h-82z" />
    <glyph glyph-name="Ucircumflex" unicode="&#xdb;" horiz-adv-x="679" 
d="M211.5 18.5q-56.5 32.5 -89 87.5t-32.5 119v455h87v-485q5 -30 25.5 -60.5t54.5 -51.5t79 -21h7q45 0 79 21t54.5 51.5t25.5 60.5v485h87v-455q0 -64 -32.5 -119t-89 -87.5t-124.5 -32.5h-7q-68 0 -124.5 32.5zM405 743l-66 78l-65 -78h-78l93 119h101l92 -119h-77z" />
    <glyph glyph-name="Udieresis" unicode="&#xdc;" horiz-adv-x="679" 
d="M211.5 18.5q-56.5 32.5 -89 87.5t-32.5 119v455h87v-485q5 -30 25.5 -60.5t54.5 -51.5t79 -21h7q45 0 79 21t54.5 51.5t25.5 60.5v485h87v-455q0 -64 -32.5 -119t-89 -87.5t-124.5 -32.5h-7q-68 0 -124.5 32.5zM187 850h98v-100h-98v100zM394 850h98v-100h-98v100z" />
    <glyph glyph-name="Ugrave" unicode="&#xd9;" horiz-adv-x="679" 
d="M211.5 18.5q-56.5 32.5 -89 87.5t-32.5 119v455h87v-485q5 -30 25.5 -60.5t54.5 -51.5t79 -21h7q45 0 79 21t54.5 51.5t25.5 60.5v485h87v-455q0 -64 -32.5 -119t-89 -87.5t-124.5 -32.5h-7q-68 0 -124.5 32.5zM208 862h94l77 -119h-82z" />
    <glyph glyph-name="Uhungarumlaut" unicode="&#x170;" horiz-adv-x="679" 
d="M211.5 18.5q-56.5 32.5 -89 87.5t-32.5 119v455h87v-485q5 -30 25.5 -60.5t54.5 -51.5t79 -21h7q45 0 79 21t54.5 51.5t25.5 60.5v485h87v-455q0 -64 -32.5 -119t-89 -87.5t-124.5 -32.5h-7q-68 0 -124.5 32.5zM288 862h79l-85 -119h-71zM446 862h80l-86 -119h-71z" />
    <glyph glyph-name="Umacron" unicode="&#x16a;" horiz-adv-x="679" 
d="M211.5 18.5q-56.5 32.5 -89 87.5t-32.5 119v455h87v-485q5 -30 25.5 -60.5t54.5 -51.5t79 -21h7q45 0 79 21t54.5 51.5t25.5 60.5v485h87v-455q0 -64 -32.5 -119t-89 -87.5t-124.5 -32.5h-7q-68 0 -124.5 32.5zM216 826h248v-66h-248v66z" />
    <glyph glyph-name="Uogonek" unicode="&#x172;" horiz-adv-x="679" 
d="M589 680v-455q0 -60 -28.5 -112t-77.5 -85l-45 -43q-20 -19 -32 -40.5t-12 -41.5v-3q0 -18 12 -29.5t31 -11.5h4q11 0 31 4v-46q-22 -9 -46 -9h-4q-45 0 -69.5 21t-24.5 59v3q0 23 13 48t38 49q-24 -2 -36 -2h-7q-68 0 -124.5 32.5t-89 87.5t-32.5 119v455h87v-485
q5 -30 25.5 -60.5t54.5 -51.5t79 -21h7q45 0 79 21t54.5 51.5t25.5 60.5v485h87z" />
    <glyph glyph-name="Uring" unicode="&#x16e;" horiz-adv-x="679" 
d="M211.5 18.5q-56.5 32.5 -89 87.5t-32.5 119v455h87v-485q5 -30 25.5 -60.5t54.5 -51.5t79 -21h7q45 0 79 21t54.5 51.5t25.5 60.5v485h87v-455q0 -64 -32.5 -119t-89 -87.5t-124.5 -32.5h-7q-68 0 -124.5 32.5zM272.5 707.5q-28.5 27.5 -28.5 65.5t28 65t67 27t67.5 -27
t28.5 -65t-28.5 -65.5t-67.5 -27.5q-38 0 -66.5 27.5zM373.5 739q14.5 14 14.5 34q0 19 -14.5 33t-34.5 14t-34 -14t-14 -33q0 -20 14 -34t34 -14t34.5 14z" />
    <glyph glyph-name="V" unicode="V" horiz-adv-x="638" 
d="M618 680l-298 -705h-2l-298 705h89l213 -512l212 512h84z" />
    <glyph glyph-name="W" unicode="W" horiz-adv-x="924" 
d="M898 680l-250 -705h-2l-184 495l-182 -495h-2l-252 705h88l171 -489l178 489h1l183 -490l168 490h83z" />
    <glyph glyph-name="Wacute" unicode="&#x1e82;" horiz-adv-x="924" 
d="M898 680l-250 -705h-2l-184 495l-182 -495h-2l-252 705h88l171 -489l178 489h1l183 -490l168 490h83zM499 862h94l-89 -119h-82z" />
    <glyph glyph-name="Wcircumflex" unicode="&#x174;" horiz-adv-x="924" 
d="M898 680l-250 -705h-2l-184 495l-182 -495h-2l-252 705h88l171 -489l178 489h1l183 -490l168 490h83zM527 743l-66 78l-65 -78h-78l93 119h101l92 -119h-77z" />
    <glyph glyph-name="Wdieresis" unicode="&#x1e84;" horiz-adv-x="924" 
d="M898 680l-250 -705h-2l-184 495l-182 -495h-2l-252 705h88l171 -489l178 489h1l183 -490l168 490h83zM309 850h98v-100h-98v100zM516 850h98v-100h-98v100z" />
    <glyph glyph-name="Wgrave" unicode="&#x1e80;" horiz-adv-x="924" 
d="M898 680l-250 -705h-2l-184 495l-182 -495h-2l-252 705h88l171 -489l178 489h1l183 -490l168 490h83zM330 862h94l77 -119h-82z" />
    <glyph glyph-name="X" unicode="X" horiz-adv-x="641" 
d="M521 0l-202 294l-202 -294h-98l246 350l-233 330h102l190 -275l186 275h97l-227 -330l242 -350h-101z" />
    <glyph glyph-name="Y" unicode="Y" horiz-adv-x="601" 
d="M346 296v-296h-87v291l-239 389h95l187 -307l187 307h92z" />
    <glyph glyph-name="Yacute" unicode="&#xdd;" horiz-adv-x="601" 
d="M346 296v-296h-87v291l-239 389h95l187 -307l187 307h92zM338 862h94l-89 -119h-82z" />
    <glyph glyph-name="Ycircumflex" unicode="&#x176;" horiz-adv-x="601" 
d="M346 296v-296h-87v291l-239 389h95l187 -307l187 307h92zM366 743l-66 78l-65 -78h-78l93 119h101l92 -119h-77z" />
    <glyph glyph-name="Ydieresis" unicode="&#x178;" horiz-adv-x="601" 
d="M346 296v-296h-87v291l-239 389h95l187 -307l187 307h92zM148 850h98v-100h-98v100zM355 850h98v-100h-98v100z" />
    <glyph glyph-name="Ygrave" unicode="&#x1ef2;" horiz-adv-x="601" 
d="M346 296v-296h-87v291l-239 389h95l187 -307l187 307h92zM169 862h94l77 -119h-82z" />
    <glyph glyph-name="Z" unicode="Z" horiz-adv-x="567" 
d="M549 678l-386 -601h361v-77h-506v2l386 601h-363v77h508v-2z" />
    <glyph glyph-name="Zacute" unicode="&#x179;" horiz-adv-x="567" 
d="M549 678l-386 -601h361v-77h-506v2l386 601h-363v77h508v-2zM322 862h94l-89 -119h-82z" />
    <glyph glyph-name="Zcaron" unicode="&#x17d;" horiz-adv-x="567" 
d="M549 678l-386 -601h361v-77h-506v2l386 601h-363v77h508v-2zM427 862l-92 -119h-101l-93 119h78l65 -78l66 78h77z" />
    <glyph glyph-name="Zdotaccent" unicode="&#x17b;" horiz-adv-x="567" 
d="M549 678l-386 -601h361v-77h-506v2l386 601h-363v77h508v-2zM230 850h109v-100h-109v100z" />
    <glyph glyph-name="a" unicode="a" horiz-adv-x="560" 
d="M471 483v-483h-78v51q-24 -30 -59 -46.5t-76 -16.5h-7q-56 0 -102 29.5t-73.5 85t-27.5 129.5v20q0 74 27.5 129t73.5 84.5t102 29.5h7q41 0 76 -17t59 -47v52h78zM342 77.5q29 18.5 46 47.5v233q-17 29 -46 47.5t-68 18.5h-6q-50 0 -83.5 -29t-45.5 -68q-3 -22 -3 -85
q0 -62 3 -85q12 -39 45.5 -68.5t83.5 -29.5h6q39 0 68 18.5z" />
    <glyph glyph-name="aacute" unicode="&#xe1;" horiz-adv-x="560" 
d="M471 483v-483h-78v51q-24 -30 -59 -46.5t-76 -16.5h-7q-56 0 -102 29.5t-73.5 85t-27.5 129.5v20q0 74 27.5 129t73.5 84.5t102 29.5h7q41 0 76 -17t59 -47v52h78zM342 77.5q29 18.5 46 47.5v233q-17 29 -46 47.5t-68 18.5h-6q-50 0 -83.5 -29t-45.5 -68q-3 -22 -3 -85
q0 -62 3 -85q12 -39 45.5 -68.5t83.5 -29.5h6q39 0 68 18.5zM322 710h92l-93 -139h-82z" />
    <glyph glyph-name="abreve" unicode="&#x103;" horiz-adv-x="560" 
d="M471 483v-483h-78v51q-24 -30 -59 -46.5t-76 -16.5h-7q-56 0 -102 29.5t-73.5 85t-27.5 129.5v20q0 74 27.5 129t73.5 84.5t102 29.5h7q41 0 76 -17t59 -47v52h78zM342 77.5q29 18.5 46 47.5v233q-17 29 -46 47.5t-68 18.5h-6q-50 0 -83.5 -29t-45.5 -68q-3 -22 -3 -85
q0 -62 3 -85q12 -39 45.5 -68.5t83.5 -29.5h6q39 0 68 18.5zM184.5 602q-35.5 34 -36.5 83h54q2 -24 22 -42t54 -18t53.5 18t21.5 42h55q-2 -49 -37.5 -83t-92.5 -34q-58 0 -93.5 34z" />
    <glyph glyph-name="acircumflex" unicode="&#xe2;" horiz-adv-x="560" 
d="M471 483v-483h-78v51q-24 -30 -59 -46.5t-76 -16.5h-7q-56 0 -102 29.5t-73.5 85t-27.5 129.5v20q0 74 27.5 129t73.5 84.5t102 29.5h7q41 0 76 -17t59 -47v52h78zM342 77.5q29 18.5 46 47.5v233q-17 29 -46 47.5t-68 18.5h-6q-50 0 -83.5 -29t-45.5 -68q-3 -22 -3 -85
q0 -62 3 -85q12 -39 45.5 -68.5t83.5 -29.5h6q39 0 68 18.5zM347 571l-69 95l-70 -95h-78l97 139h101l97 -139h-78z" />
    <glyph glyph-name="adieresis" unicode="&#xe4;" horiz-adv-x="560" 
d="M471 483v-483h-78v51q-24 -30 -59 -46.5t-76 -16.5h-7q-56 0 -102 29.5t-73.5 85t-27.5 129.5v20q0 74 27.5 129t73.5 84.5t102 29.5h7q41 0 76 -17t59 -47v52h78zM342 77.5q29 18.5 46 47.5v233q-17 29 -46 47.5t-68 18.5h-6q-50 0 -83.5 -29t-45.5 -68q-3 -22 -3 -85
q0 -62 3 -85q12 -39 45.5 -68.5t83.5 -29.5h6q39 0 68 18.5zM133 691h98v-100h-98v100zM324 691h98v-100h-98v100z" />
    <glyph glyph-name="agrave" unicode="&#xe0;" horiz-adv-x="560" 
d="M471 483v-483h-78v51q-24 -30 -59 -46.5t-76 -16.5h-7q-56 0 -102 29.5t-73.5 85t-27.5 129.5v20q0 74 27.5 129t73.5 84.5t102 29.5h7q41 0 76 -17t59 -47v52h78zM342 77.5q29 18.5 46 47.5v233q-17 29 -46 47.5t-68 18.5h-6q-50 0 -83.5 -29t-45.5 -68q-3 -22 -3 -85
q0 -62 3 -85q12 -39 45.5 -68.5t83.5 -29.5h6q39 0 68 18.5zM140 710h92l83 -139h-81z" />
    <glyph glyph-name="amacron" unicode="&#x101;" horiz-adv-x="560" 
d="M471 483v-483h-78v51q-24 -30 -59 -46.5t-76 -16.5h-7q-56 0 -102 29.5t-73.5 85t-27.5 129.5v20q0 74 27.5 129t73.5 84.5t102 29.5h7q41 0 76 -17t59 -47v52h78zM342 77.5q29 18.5 46 47.5v233q-17 29 -46 47.5t-68 18.5h-6q-50 0 -83.5 -29t-45.5 -68q-3 -22 -3 -85
q0 -62 3 -85q12 -39 45.5 -68.5t83.5 -29.5h6q39 0 68 18.5zM154 668h248v-68h-248v68z" />
    <glyph glyph-name="aogonek" unicode="&#x105;" horiz-adv-x="560" 
d="M406 -57q-13 -20 -13 -40v-3q0 -18 12 -29.5t31 -11.5h4q11 0 31 4v-46q-22 -9 -46 -9h-4q-45 0 -69.5 21t-24.5 59v3q0 27 19 54.5t55 51.5l5 3h-13v51q-24 -30 -59 -46.5t-76 -16.5h-7q-56 0 -102 29.5t-73.5 85t-27.5 129.5v20q0 74 27.5 129t73.5 84.5t102 29.5h7
q41 0 76 -17t59 -47v52h78v-483l-29 -21q-23 -16 -36 -36zM342 77.5q29 18.5 46 47.5v233q-17 29 -46 47.5t-68 18.5h-6q-50 0 -83.5 -29t-45.5 -68q-3 -22 -3 -85q0 -62 3 -85q12 -39 45.5 -68.5t83.5 -29.5h6q39 0 68 18.5z" />
    <glyph glyph-name="aring" unicode="&#xe5;" horiz-adv-x="560" 
d="M471 483v-483h-78v51q-24 -30 -59 -46.5t-76 -16.5h-7q-56 0 -102 29.5t-73.5 85t-27.5 129.5v20q0 74 27.5 129t73.5 84.5t102 29.5h7q41 0 76 -17t59 -47v52h78zM342 77.5q29 18.5 46 47.5v233q-17 29 -46 47.5t-68 18.5h-6q-50 0 -83.5 -29t-45.5 -68q-3 -22 -3 -85
q0 -62 3 -85q12 -39 45.5 -68.5t83.5 -29.5h6q39 0 68 18.5zM209 587q-29 28 -29 67t29 66.5t69 27.5t69 -27.5t29 -66.5t-29 -67t-69 -28t-69 28zM313.5 618.5q14.5 14.5 14.5 35.5q0 20 -14.5 34.5t-35.5 14.5t-35.5 -14.5t-14.5 -34.5q0 -21 14.5 -35.5t35.5 -14.5
t35.5 14.5z" />
    <glyph glyph-name="atilde" unicode="&#xe3;" horiz-adv-x="560" 
d="M471 483v-483h-78v51q-24 -30 -59 -46.5t-76 -16.5h-7q-56 0 -102 29.5t-73.5 85t-27.5 129.5v20q0 74 27.5 129t73.5 84.5t102 29.5h7q41 0 76 -17t59 -47v52h78zM342 77.5q29 18.5 46 47.5v233q-17 29 -46 47.5t-68 18.5h-6q-50 0 -83.5 -29t-45.5 -68q-3 -22 -3 -85
q0 -62 3 -85q12 -39 45.5 -68.5t83.5 -29.5h6q39 0 68 18.5zM147.5 666.5q20.5 29.5 60.5 29.5q31 0 69 -21l22 -12q27 -17 46 -17q14 0 21.5 13.5t9.5 36.5h53q-2 -52 -21.5 -81.5t-60.5 -29.5q-29 0 -70 23l-22 12q-14 8 -23 11.5t-19 3.5q-30 0 -35 -50h-53
q2 52 22.5 81.5z" />
    <glyph glyph-name="ae" unicode="&#xe6;" horiz-adv-x="823" 
d="M773 230h-337q0 -33 3 -66q7 -43 42.5 -76.5t87.5 -33.5h5q39 0 68.5 19.5t45.5 54.5h82q-22 -68 -75.5 -105t-121.5 -37h-5q-47 0 -88.5 19t-71.5 55q-70 -73 -175 -73h-5q-50 0 -91 18t-65 52t-24 78v9q0 66 52.5 105t136.5 39h115v85q-11 23 -35 40t-63 17h-4
q-37 0 -64.5 -18.5t-37.5 -47.5h-86q17 61 68 97t118 36h5q54 0 94 -19t62 -53q29 35 68.5 53.5t84.5 18.5h6q56 0 103.5 -28t75.5 -79.5t28 -119.5q0 -20 -2 -40zM692 320q-8 45 -41.5 77t-82.5 32h-5q-49 0 -83 -32t-41 -74q-2 -24 -2 -35h255v32zM313 71q35 17 60 48
q-21 52 -21 112h-108q-43 0 -72.5 -17t-37.5 -39q-1 -11 -1 -33t1 -33q9 -22 35 -38.5t66 -16.5h5q38 0 73 17z" />
    <glyph glyph-name="b" unicode="b" horiz-adv-x="565" 
d="M412.5 465.5q46.5 -29.5 74 -84.5t27.5 -129v-20q0 -74 -27.5 -129.5t-74 -85t-102.5 -29.5h-6q-41 0 -76.5 17t-60.5 47v-52h-78v710h83v-274q25 28 59 43.5t73 15.5h6q56 0 102.5 -29.5zM427 242q0 55 -4 85q-11 38 -45 67.5t-84 29.5h-7q-39 0 -68.5 -19t-46.5 -48
v-231q17 -29 46.5 -48t68.5 -19h7q50 0 84 30t45 68q4 30 4 85z" />
    <glyph glyph-name="c" unicode="c" horiz-adv-x="468" 
d="M162.5 16q-52.5 29 -83.5 84.5t-31 132.5v18q0 76 31 132t83.5 85t114.5 29h5q42 0 78.5 -14.5t58.5 -34.5v-83q-65 61 -133 61h-5q-53 0 -91 -29.5t-51 -67.5q-3 -22 -3 -87q0 -64 3 -88q13 -38 51 -67t91 -29h5q67 0 133 60v-83q-23 -19 -59 -33.5t-78 -14.5h-5
q-62 0 -114.5 29z" />
    <glyph glyph-name="cacute" unicode="&#x107;" horiz-adv-x="468" 
d="M162.5 16q-52.5 29 -83.5 84.5t-31 132.5v18q0 76 31 132t83.5 85t114.5 29h5q42 0 78.5 -14.5t58.5 -34.5v-83q-65 61 -133 61h-5q-53 0 -91 -29.5t-51 -67.5q-3 -22 -3 -87q0 -64 3 -88q13 -38 51 -67t91 -29h5q67 0 133 60v-83q-23 -19 -59 -33.5t-78 -14.5h-5
q-62 0 -114.5 29zM313 703h92l-93 -139h-82z" />
    <glyph glyph-name="ccaron" unicode="&#x10d;" horiz-adv-x="468" 
d="M162.5 16q-52.5 29 -83.5 84.5t-31 132.5v18q0 76 31 132t83.5 85t114.5 29h5q42 0 78.5 -14.5t58.5 -34.5v-83q-65 61 -133 61h-5q-53 0 -91 -29.5t-51 -67.5q-3 -22 -3 -87q0 -64 3 -88q13 -38 51 -67t91 -29h5q67 0 133 60v-83q-23 -19 -59 -33.5t-78 -14.5h-5
q-62 0 -114.5 29zM415 703l-97 -139h-101l-97 139h78l70 -95l69 95h78z" />
    <glyph glyph-name="ccedilla" unicode="&#xe7;" horiz-adv-x="468" 
d="M190 396.5q-38 -29.5 -51 -67.5q-3 -22 -3 -87q0 -64 3 -88q13 -38 51 -67t91 -29h5q67 0 133 60v-83q-21 -19 -56.5 -33t-76.5 -15l-21 -51q39 -5 63.5 -27t24.5 -57v-3q0 -43 -29.5 -65.5t-77.5 -22.5h-4q-23 0 -45.5 6t-37.5 17v45q32 -24 78 -24h4q22 0 36.5 11.5
t14.5 28.5v10q0 17 -16.5 28t-41.5 11h-36l40 96q-83 13 -136.5 77t-53.5 166v18q0 76 31 132t83.5 85t114.5 29h5q42 0 78.5 -14.5t58.5 -34.5v-83q-65 61 -133 61h-5q-53 0 -91 -29.5z" />
    <glyph glyph-name="cdotaccent" unicode="&#x10b;" horiz-adv-x="468" 
d="M162.5 16q-52.5 29 -83.5 84.5t-31 132.5v18q0 76 31 132t83.5 85t114.5 29h5q42 0 78.5 -14.5t58.5 -34.5v-83q-65 61 -133 61h-5q-53 0 -91 -29.5t-51 -67.5q-3 -22 -3 -87q0 -64 3 -88q13 -38 51 -67t91 -29h5q67 0 133 60v-83q-23 -19 -59 -33.5t-78 -14.5h-5
q-62 0 -114.5 29zM214 684h108v-101h-108v101z" />
    <glyph glyph-name="d" unicode="d" horiz-adv-x="565" 
d="M476 710v-710h-78v52q-25 -30 -60.5 -47t-76.5 -17h-6q-56 0 -102.5 29.5t-74 85t-27.5 129.5v20q0 74 27.5 129t74 84.5t102.5 29.5h6q39 0 73 -15.5t59 -43.5v274h83zM346.5 78q29.5 19 46.5 48v231q-17 29 -46.5 48t-68.5 19h-7q-50 0 -84 -29.5t-45 -67.5
q-4 -30 -4 -85t4 -85q11 -38 45 -68t84 -30h7q39 0 68.5 19z" />
    <glyph glyph-name="eth" unicode="&#xf0;" horiz-adv-x="548" 
d="M473.5 400q29.5 -76 29.5 -133v-58q0 -64 -30.5 -114.5t-82 -79.5t-112.5 -29h-5q-61 0 -112.5 29t-82 79.5t-30.5 114.5v6q0 63 29.5 113.5t79.5 79t109 28.5h5q35 0 69.5 -13.5t58.5 -38.5q-28 72 -79 142l-132 -42l-13 41l118 38q-50 62 -112 117h91q48 -40 93 -94
l95 31l12 -42l-80 -26q52 -73 81.5 -149zM417 212q0 35 -2 53q-9 40 -46 71t-91 31h-5q-54 0 -90.5 -31t-46.5 -71q-2 -18 -2 -53t2 -53q10 -40 46.5 -71t90.5 -31h5q54 0 91 31.5t46 70.5q2 18 2 53z" />
    <glyph glyph-name="dcaron" unicode="&#x10f;" horiz-adv-x="648" 
d="M476 710v-710h-78v52q-25 -30 -60.5 -47t-76.5 -17h-6q-56 0 -102.5 29.5t-74 85t-27.5 129.5v20q0 74 27.5 129t74 84.5t102.5 29.5h6q39 0 73 -15.5t59 -43.5v274h83zM346.5 78q29.5 19 46.5 48v231q-17 29 -46.5 48t-68.5 19h-7q-50 0 -84 -29.5t-45 -67.5
q-4 -30 -4 -85t4 -85q11 -38 45 -68t84 -30h7q39 0 68.5 19zM581 710h69l-42 -177h-64z" />
    <glyph glyph-name="dcroat" unicode="&#x111;" horiz-adv-x="565" 
d="M527 577h-51v-577h-78v52q-25 -30 -60.5 -47t-76.5 -17h-6q-56 0 -102.5 29.5t-74 85t-27.5 129.5v20q0 74 27.5 129t74 84.5t102.5 29.5h6q39 0 73 -15.5t59 -43.5v141h-121v48h121v85h83v-85h51v-48zM346.5 78q29.5 19 46.5 48v231q-17 29 -46.5 48t-68.5 19h-7
q-50 0 -84 -29.5t-45 -67.5q-4 -30 -4 -85t4 -85q11 -38 45 -68t84 -30h7q39 0 68.5 19z" />
    <glyph glyph-name="e" unicode="e" horiz-adv-x="527" 
d="M477 224h-343q0 -23 2 -57q8 -44 44 -78.5t88 -34.5h6q40 0 71 20t46 54h84q-23 -68 -77.5 -105t-123.5 -37h-6q-60 0 -110 29.5t-80 86t-30 131.5v18q0 74 29 130t78.5 86t108.5 30h5q58 0 106 -27t76 -78.5t28 -121.5q0 -26 -2 -46zM397 320q-8 45 -42 77t-85 32h-6
q-51 0 -86 -32.5t-42 -75.5q-1 -10 -1 -31h262v30z" />
    <glyph glyph-name="eacute" unicode="&#xe9;" horiz-adv-x="527" 
d="M477 224h-343q0 -23 2 -57q8 -44 44 -78.5t88 -34.5h6q40 0 71 20t46 54h84q-23 -68 -77.5 -105t-123.5 -37h-6q-60 0 -110 29.5t-80 86t-30 131.5v18q0 74 29 130t78.5 86t108.5 30h5q58 0 106 -27t76 -78.5t28 -121.5q0 -26 -2 -46zM397 320q-8 45 -42 77t-85 32h-6
q-51 0 -86 -32.5t-42 -75.5q-1 -10 -1 -31h262v30zM312 710h92l-93 -139h-82z" />
    <glyph glyph-name="ecaron" unicode="&#x11b;" horiz-adv-x="527" 
d="M477 224h-343q0 -23 2 -57q8 -44 44 -78.5t88 -34.5h6q40 0 71 20t46 54h84q-23 -68 -77.5 -105t-123.5 -37h-6q-60 0 -110 29.5t-80 86t-30 131.5v18q0 74 29 130t78.5 86t108.5 30h5q58 0 106 -27t76 -78.5t28 -121.5q0 -26 -2 -46zM397 320q-8 45 -42 77t-85 32h-6
q-51 0 -86 -32.5t-42 -75.5q-1 -10 -1 -31h262v30zM415 710l-97 -139h-101l-97 139h78l70 -95l69 95h78z" />
    <glyph glyph-name="ecircumflex" unicode="&#xea;" horiz-adv-x="527" 
d="M477 224h-343q0 -23 2 -57q8 -44 44 -78.5t88 -34.5h6q40 0 71 20t46 54h84q-23 -68 -77.5 -105t-123.5 -37h-6q-60 0 -110 29.5t-80 86t-30 131.5v18q0 74 29 130t78.5 86t108.5 30h5q58 0 106 -27t76 -78.5t28 -121.5q0 -26 -2 -46zM397 320q-8 45 -42 77t-85 32h-6
q-51 0 -86 -32.5t-42 -75.5q-1 -10 -1 -31h262v30zM337 571l-69 95l-70 -95h-78l97 139h101l97 -139h-78z" />
    <glyph glyph-name="edieresis" unicode="&#xeb;" horiz-adv-x="527" 
d="M477 224h-343q0 -23 2 -57q8 -44 44 -78.5t88 -34.5h6q40 0 71 20t46 54h84q-23 -68 -77.5 -105t-123.5 -37h-6q-60 0 -110 29.5t-80 86t-30 131.5v18q0 74 29 130t78.5 86t108.5 30h5q58 0 106 -27t76 -78.5t28 -121.5q0 -26 -2 -46zM397 320q-8 45 -42 77t-85 32h-6
q-51 0 -86 -32.5t-42 -75.5q-1 -10 -1 -31h262v30zM123 691h98v-100h-98v100zM314 691h98v-100h-98v100z" />
    <glyph glyph-name="edotaccent" unicode="&#x117;" horiz-adv-x="527" 
d="M477 224h-343q0 -23 2 -57q8 -44 44 -78.5t88 -34.5h6q40 0 71 20t46 54h84q-23 -68 -77.5 -105t-123.5 -37h-6q-60 0 -110 29.5t-80 86t-30 131.5v18q0 74 29 130t78.5 86t108.5 30h5q58 0 106 -27t76 -78.5t28 -121.5q0 -26 -2 -46zM397 320q-8 45 -42 77t-85 32h-6
q-51 0 -86 -32.5t-42 -75.5q-1 -10 -1 -31h262v30zM214 691h108v-101h-108v101z" />
    <glyph glyph-name="egrave" unicode="&#xe8;" horiz-adv-x="527" 
d="M477 224h-343q0 -23 2 -57q8 -44 44 -78.5t88 -34.5h6q40 0 71 20t46 54h84q-23 -68 -77.5 -105t-123.5 -37h-6q-60 0 -110 29.5t-80 86t-30 131.5v18q0 74 29 130t78.5 86t108.5 30h5q58 0 106 -27t76 -78.5t28 -121.5q0 -26 -2 -46zM397 320q-8 45 -42 77t-85 32h-6
q-51 0 -86 -32.5t-42 -75.5q-1 -10 -1 -31h262v30zM131 710h92l83 -139h-81z" />
    <glyph glyph-name="emacron" unicode="&#x113;" horiz-adv-x="527" 
d="M477 224h-343q0 -23 2 -57q8 -44 44 -78.5t88 -34.5h6q40 0 71 20t46 54h84q-23 -68 -77.5 -105t-123.5 -37h-6q-60 0 -110 29.5t-80 86t-30 131.5v18q0 74 29 130t78.5 86t108.5 30h5q58 0 106 -27t76 -78.5t28 -121.5q0 -26 -2 -46zM397 320q-8 45 -42 77t-85 32h-6
q-51 0 -86 -32.5t-42 -75.5q-1 -10 -1 -31h262v30zM144 668h248v-68h-248v68z" />
    <glyph glyph-name="eogonek" unicode="&#x119;" horiz-adv-x="527" 
d="M477 224h-343q0 -23 2 -57q8 -44 44 -78.5t88 -34.5h6q40 0 71 20t46 54h84q-23 -71 -85 -110l-34 -33q-20 -19 -32 -40.5t-12 -41.5v-3q0 -18 12 -29.5t31 -11.5h4q11 0 31 4v-46q-22 -9 -46 -9h-4q-45 0 -69.5 21t-24.5 59v3q0 47 49 96q-7 -1 -21 -1h-6
q-60 0 -110 29.5t-80 86t-30 131.5v18q0 74 29 130t78.5 86t108.5 30h5q58 0 106 -27t76 -78.5t28 -121.5q0 -26 -2 -46zM397 320q-8 45 -42 77t-85 32h-6q-51 0 -86 -32.5t-42 -75.5q-1 -10 -1 -31h262v30z" />
    <glyph glyph-name="f" unicode="f" horiz-adv-x="328" 
d="M219.5 634.5q-14.5 -10.5 -18.5 -30.5v-121h79v-64h-79v-419h-84v419h-67v64h67v110q0 58 34 89.5t88 31.5q26 0 44 -6v-65q-12 2 -26 2q-23 0 -37.5 -10.5z" />
    <glyph glyph-name="g" unicode="g" horiz-adv-x="552" 
d="M467 483v-505q0 -53 -26 -96.5t-71.5 -68.5t-100.5 -25h-5q-72 0 -125.5 34.5t-68.5 100.5h84q11 -31 40.5 -49.5t69.5 -18.5h6q46 0 75.5 27t38.5 63v110q-24 -27 -57 -42t-70 -15h-7q-55 0 -100.5 29t-72.5 83t-27 127v20q0 72 27 126t72.5 83t100.5 29h7
q39 0 73.5 -16.5t58.5 -46.5v51h78zM339 87.5q28 18.5 45 47.5v222q-17 29 -45 48t-66 19h-7q-49 0 -81 -29t-44 -68q-3 -21 -3 -80q0 -57 3 -80q12 -39 44 -68.5t81 -29.5h7q38 0 66 18.5z" />
    <glyph glyph-name="gbreve" unicode="&#x11f;" horiz-adv-x="552" 
d="M467 483v-505q0 -53 -26 -96.5t-71.5 -68.5t-100.5 -25h-5q-72 0 -125.5 34.5t-68.5 100.5h84q11 -31 40.5 -49.5t69.5 -18.5h6q46 0 75.5 27t38.5 63v110q-24 -27 -57 -42t-70 -15h-7q-55 0 -100.5 29t-72.5 83t-27 127v20q0 72 27 126t72.5 83t100.5 29h7
q39 0 73.5 -16.5t58.5 -46.5v51h78zM339 87.5q28 18.5 45 47.5v222q-17 29 -45 48t-66 19h-7q-49 0 -81 -29t-44 -68q-3 -21 -3 -80q0 -57 3 -80q12 -39 44 -68.5t81 -29.5h7q38 0 66 18.5zM183.5 602q-35.5 34 -36.5 83h54q2 -24 22 -42t54 -18t53.5 18t21.5 42h55
q-2 -49 -37.5 -83t-92.5 -34q-58 0 -93.5 34z" />
    <glyph glyph-name="uni0123" unicode="&#x123;" horiz-adv-x="552" 
d="M467 483v-505q0 -53 -26 -96.5t-71.5 -68.5t-100.5 -25h-5q-72 0 -125.5 34.5t-68.5 100.5h84q11 -31 40.5 -49.5t69.5 -18.5h6q46 0 75.5 27t38.5 63v110q-24 -27 -57 -42t-70 -15h-7q-55 0 -100.5 29t-72.5 83t-27 127v20q0 72 27 126t72.5 83t100.5 29h7
q39 0 73.5 -16.5t58.5 -46.5v51h78zM339 87.5q28 18.5 45 47.5v222q-17 29 -45 48t-66 19h-7q-49 0 -81 -29t-44 -68q-3 -21 -3 -80q0 -57 3 -80q12 -39 44 -68.5t81 -29.5h7q38 0 66 18.5zM238 700l77 65h1v-170h-78v105z" />
    <glyph glyph-name="gdotaccent" unicode="&#x121;" horiz-adv-x="552" 
d="M467 483v-505q0 -53 -26 -96.5t-71.5 -68.5t-100.5 -25h-5q-72 0 -125.5 34.5t-68.5 100.5h84q11 -31 40.5 -49.5t69.5 -18.5h6q46 0 75.5 27t38.5 63v110q-24 -27 -57 -42t-70 -15h-7q-55 0 -100.5 29t-72.5 83t-27 127v20q0 72 27 126t72.5 83t100.5 29h7
q39 0 73.5 -16.5t58.5 -46.5v51h78zM339 87.5q28 18.5 45 47.5v222q-17 29 -45 48t-66 19h-7q-49 0 -81 -29t-44 -68q-3 -21 -3 -80q0 -57 3 -80q12 -39 44 -68.5t81 -29.5h7q38 0 66 18.5zM223 691h108v-101h-108v101z" />
    <glyph glyph-name="h" unicode="h" horiz-adv-x="555" 
d="M394.5 473.5q37.5 -21.5 58 -58t20.5 -80.5v-335h-83v357q-10 28 -35 47.5t-64 19.5h-2q-34 0 -66.5 -18.5t-50.5 -49.5v-356h-83v710h83v-276q25 29 60 45t73 16h2q50 0 87.5 -21.5z" />
    <glyph glyph-name="hbar" unicode="&#x127;" horiz-adv-x="555" 
d="M394.5 473.5q37.5 -21.5 58 -58t20.5 -80.5v-335h-83v357q-10 28 -35 47.5t-64 19.5h-2q-34 0 -66.5 -18.5t-50.5 -49.5v-356h-83v577h-48v48h48v85h83v-85h124v-48h-124v-143q25 29 60 45t73 16h2q50 0 87.5 -21.5z" />
    <glyph glyph-name="i" unicode="i" horiz-adv-x="261" 
d="M89 483h83v-483h-83v483zM76 691h108v-101h-108v101z" />
    <glyph glyph-name="dotlessi" unicode="&#x131;" horiz-adv-x="261" 
d="M89 483h83v-483h-83v483z" />
    <glyph glyph-name="iacute" unicode="&#xed;" horiz-adv-x="261" 
d="M89 483h83v-483h-83v483zM175 710h92l-93 -139h-82z" />
    <glyph glyph-name="icircumflex" unicode="&#xee;" horiz-adv-x="261" 
d="M89 483h83v-483h-83v483zM199 571l-69 95l-70 -95h-78l97 139h101l97 -139h-78z" />
    <glyph glyph-name="idieresis" unicode="&#xef;" horiz-adv-x="261" 
d="M89 483h83v-483h-83v483zM-14 691h98v-100h-98v100zM177 691h98v-100h-98v100z" />
    <glyph glyph-name="i.loclTRK" horiz-adv-x="261" 
d="M89 483h83v-483h-83v483zM76 691h108v-101h-108v101z" />
    <glyph glyph-name="igrave" unicode="&#xec;" horiz-adv-x="261" 
d="M89 483h83v-483h-83v483zM-7 710h92l83 -139h-81z" />
    <glyph glyph-name="imacron" unicode="&#x12b;" horiz-adv-x="261" 
d="M89 483h83v-483h-83v483zM6 668h248v-68h-248v68z" />
    <glyph glyph-name="iogonek" unicode="&#x12f;" horiz-adv-x="261" 
d="M184 691v-101h-108v101h108zM89 483h83v-483l-29 -21q-23 -16 -36 -36t-13 -40v-3q0 -18 12 -29.5t31 -11.5h4q11 0 31 4v-46q-22 -9 -46 -9h-4q-45 0 -69.5 21t-24.5 59v3q0 27 19 54.5t55 51.5l5 3h-18v483z" />
    <glyph glyph-name="j" unicode="j" horiz-adv-x="261" 
d="M89 483h83v-636l-83 -61v697zM76 691h108v-101h-108v101z" />
    <glyph glyph-name="uni0237" unicode="&#x237;" horiz-adv-x="261" 
d="M89 483h83v-636l-83 -61v697z" />
    <glyph glyph-name="k" unicode="k" horiz-adv-x="501" 
d="M391 0l-219 264v-264h-83v710h83v-444l191 217h99l-194 -214l225 -269h-102z" />
    <glyph glyph-name="uni0137" unicode="&#x137;" horiz-adv-x="501" 
d="M391 0l-219 264v-264h-83v710h83v-444l191 217h99l-194 -214l225 -269h-102zM214 -66h78v-84l-77 -65h-1v149z" />
    <glyph glyph-name="l" unicode="l" horiz-adv-x="261" 
d="M89 710h83v-710h-83v710z" />
    <glyph glyph-name="lacute" unicode="&#x13a;" horiz-adv-x="261" 
d="M89 710h83v-710h-83v710zM167 892h94l-89 -119h-82z" />
    <glyph glyph-name="lcaron" unicode="&#x13e;" horiz-adv-x="344" 
d="M89 710h83v-710h-83v710zM285 710h69l-42 -177h-64z" />
    <glyph glyph-name="uni013C" unicode="&#x13c;" horiz-adv-x="261" 
d="M89 710h83v-710h-83v710zM91 -66h78v-84l-77 -65h-1v149z" />
    <glyph glyph-name="lslash" unicode="&#x142;" horiz-adv-x="341" 
d="M298 419l-86 -52v-367h-83v316l-86 -52v66l86 52v328h83v-277l86 52v-66z" />
    <glyph glyph-name="m" unicode="m" horiz-adv-x="803" 
d="M680 450q42 -45 42 -115v-335h-83v359q-10 28 -33 46.5t-55 18.5h-2q-30 0 -57.5 -17t-44.5 -47v-360h-83v359q-10 28 -33 46.5t-55 18.5h-2q-29 0 -57 -17t-45 -48v-359h-83v483h78v-53q24 31 56.5 48t69.5 17h2q45 0 78 -19.5t52 -53.5q28 34 65 53.5t75 19.5h2
q71 0 113 -45z" />
    <glyph glyph-name="n" unicode="n" horiz-adv-x="553" 
d="M392.5 473.5q37.5 -21.5 58 -58t20.5 -80.5v-335h-83v357q-10 28 -35 47.5t-64 19.5h-2q-33 0 -65 -17.5t-50 -47.5v-359h-83v483h78v-53q25 31 60.5 48t75.5 17h2q50 0 87.5 -21.5z" />
    <glyph glyph-name="nacute" unicode="&#x144;" horiz-adv-x="553" 
d="M392.5 473.5q37.5 -21.5 58 -58t20.5 -80.5v-335h-83v357q-10 28 -35 47.5t-64 19.5h-2q-33 0 -65 -17.5t-50 -47.5v-359h-83v483h78v-53q25 31 60.5 48t75.5 17h2q50 0 87.5 -21.5zM328 710h92l-93 -139h-82z" />
    <glyph glyph-name="ncaron" unicode="&#x148;" horiz-adv-x="553" 
d="M392.5 473.5q37.5 -21.5 58 -58t20.5 -80.5v-335h-83v357q-10 28 -35 47.5t-64 19.5h-2q-33 0 -65 -17.5t-50 -47.5v-359h-83v483h78v-53q25 31 60.5 48t75.5 17h2q50 0 87.5 -21.5zM430 710l-97 -139h-101l-97 139h78l70 -95l69 95h78z" />
    <glyph glyph-name="uni0146" unicode="&#x146;" horiz-adv-x="553" 
d="M392.5 473.5q37.5 -21.5 58 -58t20.5 -80.5v-335h-83v357q-10 28 -35 47.5t-64 19.5h-2q-33 0 -65 -17.5t-50 -47.5v-359h-83v483h78v-53q25 31 60.5 48t75.5 17h2q50 0 87.5 -21.5zM242 -66h78v-84l-77 -65h-1v149z" />
    <glyph glyph-name="eng" unicode="&#x14b;" horiz-adv-x="553" 
d="M392.5 473.5q37.5 -21.5 58 -58t20.5 -80.5v-487l-83 -61v570q-10 28 -35 47.5t-64 19.5h-2q-33 0 -65 -17.5t-50 -47.5v-359h-83v483h78v-53q25 31 60.5 48t75.5 17h2q50 0 87.5 -21.5z" />
    <glyph glyph-name="ntilde" unicode="&#xf1;" horiz-adv-x="553" 
d="M392.5 473.5q37.5 -21.5 58 -58t20.5 -80.5v-335h-83v357q-10 28 -35 47.5t-64 19.5h-2q-33 0 -65 -17.5t-50 -47.5v-359h-83v483h78v-53q25 31 60.5 48t75.5 17h2q50 0 87.5 -21.5zM153.5 666.5q20.5 29.5 60.5 29.5q31 0 69 -21l22 -12q27 -17 46 -17q14 0 21.5 13.5
t9.5 36.5h53q-2 -52 -21.5 -81.5t-60.5 -29.5q-29 0 -70 23l-22 12q-14 8 -23 11.5t-19 3.5q-30 0 -35 -50h-53q2 52 22.5 81.5z" />
    <glyph glyph-name="o" unicode="o" horiz-adv-x="544" 
d="M157.5 16q-50.5 30 -80 86t-29.5 131v18q0 75 29.5 130.5t80 85.5t111.5 30h7q60 0 110.5 -30t80 -85.5t29.5 -130.5v-18q0 -75 -29.5 -131t-80 -86t-110.5 -30h-7q-61 0 -111.5 30zM276 57q50 0 83.5 29t45.5 68q4 32 4 88q0 57 -4 87q-12 39 -45.5 68t-83.5 29h-7
q-51 0 -84.5 -29t-45.5 -68q-3 -22 -3 -87q0 -64 3 -88q12 -39 45.5 -68t84.5 -29h7z" />
    <glyph glyph-name="oacute" unicode="&#xf3;" horiz-adv-x="544" 
d="M157.5 16q-50.5 30 -80 86t-29.5 131v18q0 75 29.5 130.5t80 85.5t111.5 30h7q60 0 110.5 -30t80 -85.5t29.5 -130.5v-18q0 -75 -29.5 -131t-80 -86t-110.5 -30h-7q-61 0 -111.5 30zM276 57q50 0 83.5 29t45.5 68q4 32 4 88q0 57 -4 87q-12 39 -45.5 68t-83.5 29h-7
q-51 0 -84.5 -29t-45.5 -68q-3 -22 -3 -87q0 -64 3 -88q12 -39 45.5 -68t84.5 -29h7zM316 710h92l-93 -139h-82z" />
    <glyph glyph-name="ocircumflex" unicode="&#xf4;" horiz-adv-x="544" 
d="M157.5 16q-50.5 30 -80 86t-29.5 131v18q0 75 29.5 130.5t80 85.5t111.5 30h7q60 0 110.5 -30t80 -85.5t29.5 -130.5v-18q0 -75 -29.5 -131t-80 -86t-110.5 -30h-7q-61 0 -111.5 30zM276 57q50 0 83.5 29t45.5 68q4 32 4 88q0 57 -4 87q-12 39 -45.5 68t-83.5 29h-7
q-51 0 -84.5 -29t-45.5 -68q-3 -22 -3 -87q0 -64 3 -88q12 -39 45.5 -68t84.5 -29h7zM340 571l-69 95l-70 -95h-78l97 139h101l97 -139h-78z" />
    <glyph glyph-name="odieresis" unicode="&#xf6;" horiz-adv-x="544" 
d="M157.5 16q-50.5 30 -80 86t-29.5 131v18q0 75 29.5 130.5t80 85.5t111.5 30h7q60 0 110.5 -30t80 -85.5t29.5 -130.5v-18q0 -75 -29.5 -131t-80 -86t-110.5 -30h-7q-61 0 -111.5 30zM276 57q50 0 83.5 29t45.5 68q4 32 4 88q0 57 -4 87q-12 39 -45.5 68t-83.5 29h-7
q-51 0 -84.5 -29t-45.5 -68q-3 -22 -3 -87q0 -64 3 -88q12 -39 45.5 -68t84.5 -29h7zM127 691h98v-100h-98v100zM318 691h98v-100h-98v100z" />
    <glyph glyph-name="ograve" unicode="&#xf2;" horiz-adv-x="544" 
d="M157.5 16q-50.5 30 -80 86t-29.5 131v18q0 75 29.5 130.5t80 85.5t111.5 30h7q60 0 110.5 -30t80 -85.5t29.5 -130.5v-18q0 -75 -29.5 -131t-80 -86t-110.5 -30h-7q-61 0 -111.5 30zM276 57q50 0 83.5 29t45.5 68q4 32 4 88q0 57 -4 87q-12 39 -45.5 68t-83.5 29h-7
q-51 0 -84.5 -29t-45.5 -68q-3 -22 -3 -87q0 -64 3 -88q12 -39 45.5 -68t84.5 -29h7zM134 710h92l83 -139h-81z" />
    <glyph glyph-name="ohungarumlaut" unicode="&#x151;" horiz-adv-x="544" 
d="M157.5 16q-50.5 30 -80 86t-29.5 131v18q0 75 29.5 130.5t80 85.5t111.5 30h7q60 0 110.5 -30t80 -85.5t29.5 -130.5v-18q0 -75 -29.5 -131t-80 -86t-110.5 -30h-7q-61 0 -111.5 30zM276 57q50 0 83.5 29t45.5 68q4 32 4 88q0 57 -4 87q-12 39 -45.5 68t-83.5 29h-7
q-51 0 -84.5 -29t-45.5 -68q-3 -22 -3 -87q0 -64 3 -88q12 -39 45.5 -68t84.5 -29h7zM225 710h81l-90 -139h-74zM393 710h81l-90 -139h-74z" />
    <glyph glyph-name="omacron" unicode="&#x14d;" horiz-adv-x="544" 
d="M157.5 16q-50.5 30 -80 86t-29.5 131v18q0 75 29.5 130.5t80 85.5t111.5 30h7q60 0 110.5 -30t80 -85.5t29.5 -130.5v-18q0 -75 -29.5 -131t-80 -86t-110.5 -30h-7q-61 0 -111.5 30zM276 57q50 0 83.5 29t45.5 68q4 32 4 88q0 57 -4 87q-12 39 -45.5 68t-83.5 29h-7
q-51 0 -84.5 -29t-45.5 -68q-3 -22 -3 -87q0 -64 3 -88q12 -39 45.5 -68t84.5 -29h7zM147 668h248v-68h-248v68z" />
    <glyph glyph-name="oslash" unicode="&#xf8;" horiz-adv-x="544" 
d="M496 251v-18q0 -75 -29.5 -131t-80 -86t-110.5 -30h-7q-76 0 -133 45l-24 -31h-53l46 60q-27 32 -42 76t-15 97v18q0 75 29.5 130.5t80 85.5t111.5 30h7q75 0 130 -43l23 29h53l-45 -58q59 -69 59 -174zM153 123l209 272q-38 31 -86 31h-7q-51 0 -84.5 -29t-45.5 -68
q-3 -22 -3 -87q0 -64 3 -88q5 -15 14 -31zM409 242q0 57 -4 87q-4 14 -16 33l-208 -272q36 -33 88 -33h7q50 0 83.5 29t45.5 68q4 32 4 88z" />
    <glyph glyph-name="otilde" unicode="&#xf5;" horiz-adv-x="544" 
d="M157.5 16q-50.5 30 -80 86t-29.5 131v18q0 75 29.5 130.5t80 85.5t111.5 30h7q60 0 110.5 -30t80 -85.5t29.5 -130.5v-18q0 -75 -29.5 -131t-80 -86t-110.5 -30h-7q-61 0 -111.5 30zM276 57q50 0 83.5 29t45.5 68q4 32 4 88q0 57 -4 87q-12 39 -45.5 68t-83.5 29h-7
q-51 0 -84.5 -29t-45.5 -68q-3 -22 -3 -87q0 -64 3 -88q12 -39 45.5 -68t84.5 -29h7zM141.5 666.5q20.5 29.5 60.5 29.5q31 0 69 -21l22 -12q27 -17 46 -17q14 0 21.5 13.5t9.5 36.5h53q-2 -52 -21.5 -81.5t-60.5 -29.5q-29 0 -70 23l-22 12q-14 8 -23 11.5t-19 3.5
q-30 0 -35 -50h-53q2 52 22.5 81.5z" />
    <glyph glyph-name="oe" unicode="&#x153;" horiz-adv-x="874" 
d="M488 230q0 -13 -1 -19l2 -47q8 -44 43.5 -77t87.5 -33h5q39 0 69 20t44 54h83q-22 -68 -75.5 -105t-120.5 -37h-6q-53 0 -98.5 24t-75.5 68q-30 -44 -75 -68t-98 -24h-7q-59 0 -108.5 30t-79 86t-29.5 131v18q0 75 29.5 130.5t79 85.5t108.5 30h7q53 0 98 -24t75 -67
q29 43 73.5 67t95.5 24h5q56 0 103.5 -28t75.5 -79.5t28 -119.5q0 -20 -2 -40h-336zM531 397q-34 -32 -42 -74l-1 -35h255v32q-7 45 -40.5 77t-82.5 32h-6q-49 0 -83 -32zM401 242q0 59 -4 87q-11 38 -44 67.5t-81 29.5h-7q-48 0 -81 -29t-45 -68q-3 -22 -3 -87q0 -64 3 -88
q12 -39 44.5 -68t81.5 -29h7q48 0 81 29.5t44 67.5q4 30 4 88z" />
    <glyph glyph-name="p" unicode="p" horiz-adv-x="565" 
d="M412.5 465.5q46.5 -29.5 74 -84.5t27.5 -129v-20q0 -74 -27.5 -129.5t-74 -85t-102.5 -29.5h-6q-39 0 -73 15t-59 43v-246h-83v683h78v-52q25 30 61 47t76 17h6q56 0 102.5 -29.5zM427 242q0 55 -4 85q-11 38 -45 67.5t-84 29.5h-7q-39 0 -68.5 -19t-46.5 -48v-231
q17 -29 46.5 -48t68.5 -19h7q50 0 84 30t45 68q4 30 4 85z" />
    <glyph glyph-name="thorn" unicode="&#xfe;" horiz-adv-x="565" 
d="M412.5 465.5q46.5 -29.5 74 -84.5t27.5 -129v-20q0 -74 -27.5 -129.5t-74 -85t-102.5 -29.5h-6q-39 0 -73 15t-59 43v-246h-83v910h83v-274q25 28 59 43.5t73 15.5h6q56 0 102.5 -29.5zM427 242q0 55 -4 85q-11 38 -45 67.5t-84 29.5h-7q-39 0 -68.5 -19t-46.5 -48v-231
q17 -29 46.5 -48t68.5 -19h7q50 0 84 30t45 68q4 30 4 85z" />
    <glyph glyph-name="q" unicode="q" horiz-adv-x="565" 
d="M476 483v-683h-83v246q-25 -28 -59 -43t-73 -15h-6q-56 0 -102.5 29.5t-74 85t-27.5 129.5v20q0 74 27.5 129t74 84.5t102.5 29.5h6q40 0 76 -17t61 -47v52h78zM346.5 78q29.5 19 46.5 48v231q-17 29 -46.5 48t-68.5 19h-7q-50 0 -84 -29.5t-45 -67.5q-4 -30 -4 -85
t4 -85q11 -38 45 -68t84 -30h7q39 0 68.5 19z" />
    <glyph glyph-name="r" unicode="r" horiz-adv-x="347" 
d="M309 483v-77q-8 1 -25 1q-33 0 -63.5 -17.5t-48.5 -46.5v-343h-83v483h78v-61q48 63 120 63q14 0 22 -2z" />
    <glyph glyph-name="racute" unicode="&#x155;" horiz-adv-x="347" 
d="M309 483v-77q-8 1 -25 1q-33 0 -63.5 -17.5t-48.5 -46.5v-343h-83v483h78v-61q48 63 120 63q14 0 22 -2zM245 710h92l-93 -139h-82z" />
    <glyph glyph-name="rcaron" unicode="&#x159;" horiz-adv-x="347" 
d="M309 483v-77q-8 1 -25 1q-33 0 -63.5 -17.5t-48.5 -46.5v-343h-83v483h78v-61q48 63 120 63q14 0 22 -2zM347 710l-97 -139h-101l-97 139h78l70 -95l69 95h78z" />
    <glyph glyph-name="uni0157" unicode="&#x157;" horiz-adv-x="347" 
d="M309 483v-77q-8 1 -25 1q-33 0 -63.5 -17.5t-48.5 -46.5v-343h-83v483h78v-61q48 63 120 63q14 0 22 -2zM91 -66h78v-84l-77 -65h-1v149z" />
    <glyph glyph-name="s" unicode="s" horiz-adv-x="409" 
d="M123 4.5q-38 18.5 -60 51.5t-23 74h77q3 -35 28.5 -57.5t62.5 -22.5h2q43 0 64.5 25.5t18.5 66.5q-4 15 -21 29.5t-53 33.5l-74 41q-40 23 -63 51t-23 71v2q0 54 40 90.5t99 36.5h4q49 0 87 -24.5t60 -60.5l-56 -38q-40 58 -91 58h-2q-33 0 -51 -20t-16 -52q5 -13 21 -26
t46 -29l68 -38q46 -26 71.5 -56t25.5 -79v-2q0 -40 -19.5 -73t-55 -52t-80.5 -19h-2q-47 0 -85 18.5z" />
    <glyph glyph-name="sacute" unicode="&#x15b;" horiz-adv-x="409" 
d="M123 4.5q-38 18.5 -60 51.5t-23 74h77q3 -35 28.5 -57.5t62.5 -22.5h2q43 0 64.5 25.5t18.5 66.5q-4 15 -21 29.5t-53 33.5l-74 41q-40 23 -63 51t-23 71v2q0 54 40 90.5t99 36.5h4q49 0 87 -24.5t60 -60.5l-56 -38q-40 58 -91 58h-2q-33 0 -51 -20t-16 -52q5 -13 21 -26
t46 -29l68 -38q46 -26 71.5 -56t25.5 -79v-2q0 -40 -19.5 -73t-55 -52t-80.5 -19h-2q-47 0 -85 18.5zM250 710h92l-93 -139h-82z" />
    <glyph glyph-name="scaron" unicode="&#x161;" horiz-adv-x="409" 
d="M123 4.5q-38 18.5 -60 51.5t-23 74h77q3 -35 28.5 -57.5t62.5 -22.5h2q43 0 64.5 25.5t18.5 66.5q-4 15 -21 29.5t-53 33.5l-74 41q-40 23 -63 51t-23 71v2q0 54 40 90.5t99 36.5h4q49 0 87 -24.5t60 -60.5l-56 -38q-40 58 -91 58h-2q-33 0 -51 -20t-16 -52q5 -13 21 -26
t46 -29l68 -38q46 -26 71.5 -56t25.5 -79v-2q0 -40 -19.5 -73t-55 -52t-80.5 -19h-2q-47 0 -85 18.5zM353 710l-97 -139h-101l-97 139h78l70 -95l69 95h78z" />
    <glyph glyph-name="scedilla" unicode="&#x15f;" horiz-adv-x="409" 
d="M339.5 211q25.5 -30 25.5 -79v-2q0 -57 -37.5 -96.5t-97.5 -46.5l-21 -51q39 -5 63.5 -27t24.5 -57v-3q0 -43 -29.5 -65.5t-77.5 -22.5h-4q-23 0 -45.5 6t-37.5 17v45q32 -24 78 -24h4q22 0 36.5 11.5t14.5 28.5v10q0 17 -16.5 28t-41.5 11h-36l40 94q-62 8 -101.5 47
t-40.5 95h77q3 -35 28.5 -57.5t62.5 -22.5h2q43 0 64.5 25.5t18.5 66.5q-4 15 -21 29.5t-53 33.5l-74 41q-40 23 -63 51t-23 71v2q0 54 40 90.5t99 36.5h4q49 0 87 -24.5t60 -60.5l-56 -38q-40 58 -91 58h-2q-33 0 -51 -20t-16 -52q5 -13 21 -26t46 -29l68 -38
q46 -26 71.5 -56z" />
    <glyph glyph-name="uni0219" unicode="&#x219;" horiz-adv-x="409" 
d="M123 4.5q-38 18.5 -60 51.5t-23 74h77q3 -35 28.5 -57.5t62.5 -22.5h2q43 0 64.5 25.5t18.5 66.5q-4 15 -21 29.5t-53 33.5l-74 41q-40 23 -63 51t-23 71v2q0 54 40 90.5t99 36.5h4q49 0 87 -24.5t60 -60.5l-56 -38q-40 58 -91 58h-2q-33 0 -51 -20t-16 -52q5 -13 21 -26
t46 -29l68 -38q46 -26 71.5 -56t25.5 -79v-2q0 -40 -19.5 -73t-55 -52t-80.5 -19h-2q-47 0 -85 18.5zM171 -66h78v-84l-77 -65h-1v149z" />
    <glyph glyph-name="germandbls" unicode="&#xdf;" horiz-adv-x="583" 
d="M489 321q36 -49 36 -112v-7q0 -60 -26.5 -107t-73.5 -73.5t-107 -26.5h-5q-53 0 -85 12v69q28 -11 73 -11h5q54 0 90 28.5t44 66.5q2 22 2 46q0 23 -2 45q-8 38 -49 68t-100 30h-32v66h23q44 0 73.5 21t38.5 54q3 14 3 41t-3 40q-9 32 -39 53.5t-71 21.5h-6
q-45 0 -77.5 -27t-32.5 -67v-552h-83v536q0 51 25.5 91.5t70 63.5t97.5 23h6q53 0 97.5 -22.5t70.5 -62t26 -88.5v-7q0 -46 -23 -83t-63 -58q61 -23 97 -72z" />
    <glyph glyph-name="t" unicode="t" horiz-adv-x="326" 
d="M280 419h-79v-419h-84v419h-67v64h67v116l84 60v-176h79v-64z" />
    <glyph glyph-name="tbar" unicode="&#x167;" horiz-adv-x="326" 
d="M293 218h-92v-218h-84v218h-79v48h79v153h-67v64h67v116l84 60v-176h79v-64h-79v-153h92v-48z" />
    <glyph glyph-name="tcaron" unicode="&#x165;" horiz-adv-x="386" 
d="M280 419h-79v-419h-84v419h-67v64h67v116l84 60v-176h79v-64zM320 749h69l-42 -177h-64z" />
    <glyph glyph-name="uni0163" unicode="&#x163;" horiz-adv-x="326" 
d="M184 0l-27 -64q39 -5 63.5 -27t24.5 -57v-3q0 -43 -29.5 -65.5t-77.5 -22.5h-4q-23 0 -45.5 6t-37.5 17v45q32 -24 78 -24h4q22 0 36.5 11.5t14.5 28.5v10q0 17 -16.5 28t-41.5 11h-36l45 106h-18v419h-67v64h67v116l84 60v-176h79v-64h-79v-419h-17z" />
    <glyph glyph-name="uni021B" unicode="&#x21b;" horiz-adv-x="326" 
d="M280 419h-79v-419h-84v419h-67v64h67v116l84 60v-176h79v-64zM120 -66h78v-84l-77 -65h-1v149z" />
    <glyph glyph-name="u" unicode="u" horiz-adv-x="551" 
d="M462 483v-483h-78v53q-24 -30 -59 -47.5t-74 -17.5h-2q-50 0 -88 21.5t-58.5 58t-20.5 81.5v334h83v-356q10 -28 35.5 -48t64.5 -20h2q32 0 63 17.5t49 47.5v359h83z" />
    <glyph glyph-name="uacute" unicode="&#xfa;" horiz-adv-x="551" 
d="M462 483v-483h-78v53q-24 -30 -59 -47.5t-74 -17.5h-2q-50 0 -88 21.5t-58.5 58t-20.5 81.5v334h83v-356q10 -28 35.5 -48t64.5 -20h2q32 0 63 17.5t49 47.5v359h83zM317 710h92l-93 -139h-82z" />
    <glyph glyph-name="ucircumflex" unicode="&#xfb;" horiz-adv-x="551" 
d="M462 483v-483h-78v53q-24 -30 -59 -47.5t-74 -17.5h-2q-50 0 -88 21.5t-58.5 58t-20.5 81.5v334h83v-356q10 -28 35.5 -48t64.5 -20h2q32 0 63 17.5t49 47.5v359h83zM342 571l-69 95l-70 -95h-78l97 139h101l97 -139h-78z" />
    <glyph glyph-name="udieresis" unicode="&#xfc;" horiz-adv-x="551" 
d="M462 483v-483h-78v53q-24 -30 -59 -47.5t-74 -17.5h-2q-50 0 -88 21.5t-58.5 58t-20.5 81.5v334h83v-356q10 -28 35.5 -48t64.5 -20h2q32 0 63 17.5t49 47.5v359h83zM128 691h98v-100h-98v100zM319 691h98v-100h-98v100z" />
    <glyph glyph-name="ugrave" unicode="&#xf9;" horiz-adv-x="551" 
d="M462 483v-483h-78v53q-24 -30 -59 -47.5t-74 -17.5h-2q-50 0 -88 21.5t-58.5 58t-20.5 81.5v334h83v-356q10 -28 35.5 -48t64.5 -20h2q32 0 63 17.5t49 47.5v359h83zM136 710h92l83 -139h-81z" />
    <glyph glyph-name="uhungarumlaut" unicode="&#x171;" horiz-adv-x="551" 
d="M462 483v-483h-78v53q-24 -30 -59 -47.5t-74 -17.5h-2q-50 0 -88 21.5t-58.5 58t-20.5 81.5v334h83v-356q10 -28 35.5 -48t64.5 -20h2q32 0 63 17.5t49 47.5v359h83zM227 710h81l-90 -139h-74zM395 710h81l-90 -139h-74z" />
    <glyph glyph-name="umacron" unicode="&#x16b;" horiz-adv-x="551" 
d="M462 483v-483h-78v53q-24 -30 -59 -47.5t-74 -17.5h-2q-50 0 -88 21.5t-58.5 58t-20.5 81.5v334h83v-356q10 -28 35.5 -48t64.5 -20h2q32 0 63 17.5t49 47.5v359h83zM149 668h248v-68h-248v68z" />
    <glyph glyph-name="uogonek" unicode="&#x173;" horiz-adv-x="551" 
d="M397 -57q-13 -20 -13 -40v-3q0 -18 12 -29.5t31 -11.5h4q11 0 31 4v-46q-22 -9 -46 -9h-4q-45 0 -69.5 21t-24.5 59v3q0 27 19 54.5t55 51.5l5 3h-13v53q-24 -30 -59 -47.5t-74 -17.5h-2q-50 0 -88 21.5t-58.5 58t-20.5 81.5v334h83v-356q10 -28 35.5 -48t64.5 -20h2
q32 0 63 17.5t49 47.5v359h83v-483l-29 -21q-23 -16 -36 -36z" />
    <glyph glyph-name="uring" unicode="&#x16f;" horiz-adv-x="551" 
d="M462 483v-483h-78v53q-24 -30 -59 -47.5t-74 -17.5h-2q-50 0 -88 21.5t-58.5 58t-20.5 81.5v334h83v-356q10 -28 35.5 -48t64.5 -20h2q32 0 63 17.5t49 47.5v359h83zM204 587q-29 28 -29 67t29 66.5t69 27.5t69 -27.5t29 -66.5t-29 -67t-69 -28t-69 28zM308.5 618.5
q14.5 14.5 14.5 35.5q0 20 -14.5 34.5t-35.5 14.5t-35.5 -14.5t-14.5 -34.5q0 -21 14.5 -35.5t35.5 -14.5t35.5 14.5z" />
    <glyph glyph-name="v" unicode="v" horiz-adv-x="506" 
d="M489 483l-235 -508h-2l-234 508h88l150 -334l150 334h83z" />
    <glyph glyph-name="w" unicode="w" horiz-adv-x="726" 
d="M703 483l-197 -508h-2l-142 337l-140 -337h-2l-197 508h88l120 -329l134 329h1l136 -328l119 328h82z" />
    <glyph glyph-name="wacute" unicode="&#x1e83;" horiz-adv-x="726" 
d="M703 483l-197 -508h-2l-142 337l-140 -337h-2l-197 508h88l120 -329l134 329h1l136 -328l119 328h82zM411 710h92l-93 -139h-82z" />
    <glyph glyph-name="wcircumflex" unicode="&#x175;" horiz-adv-x="726" 
d="M703 483l-197 -508h-2l-142 337l-140 -337h-2l-197 508h88l120 -329l134 329h1l136 -328l119 328h82zM435 571l-69 95l-70 -95h-78l97 139h101l97 -139h-78z" />
    <glyph glyph-name="wdieresis" unicode="&#x1e85;" horiz-adv-x="726" 
d="M703 483l-197 -508h-2l-142 337l-140 -337h-2l-197 508h88l120 -329l134 329h1l136 -328l119 328h82zM222 691h98v-100h-98v100zM413 691h98v-100h-98v100z" />
    <glyph glyph-name="wgrave" unicode="&#x1e81;" horiz-adv-x="726" 
d="M703 483l-197 -508h-2l-142 337l-140 -337h-2l-197 508h88l120 -329l134 329h1l136 -328l119 328h82zM229 710h92l83 -139h-81z" />
    <glyph glyph-name="x" unicode="x" horiz-adv-x="519" 
d="M402 0l-144 202l-145 -202h-91l182 248l-172 235h94l136 -189l134 189h91l-169 -235l179 -248h-95z" />
    <glyph glyph-name="y" unicode="y" horiz-adv-x="514" 
d="M496 483l-312 -683h-82l114 250l-198 433h88l152 -340l155 340h83z" />
    <glyph glyph-name="yacute" unicode="&#xfd;" horiz-adv-x="514" 
d="M496 483l-312 -683h-82l114 250l-198 433h88l152 -340l155 340h83zM300 710h92l-93 -139h-82z" />
    <glyph glyph-name="ycircumflex" unicode="&#x177;" horiz-adv-x="514" 
d="M496 483l-312 -683h-82l114 250l-198 433h88l152 -340l155 340h83zM325 571l-69 95l-70 -95h-78l97 139h101l97 -139h-78z" />
    <glyph glyph-name="ydieresis" unicode="&#xff;" horiz-adv-x="514" 
d="M496 483l-312 -683h-82l114 250l-198 433h88l152 -340l155 340h83zM111 691h98v-100h-98v100zM302 691h98v-100h-98v100z" />
    <glyph glyph-name="ygrave" unicode="&#x1ef3;" horiz-adv-x="514" 
d="M496 483l-312 -683h-82l114 250l-198 433h88l152 -340l155 340h83zM119 710h92l83 -139h-81z" />
    <glyph glyph-name="z" unicode="z" horiz-adv-x="474" 
d="M441 481l-270 -410h259v-71h-397v2l272 411h-247v70h383v-2z" />
    <glyph glyph-name="zacute" unicode="&#x17a;" horiz-adv-x="474" 
d="M441 481l-270 -410h259v-71h-397v2l272 411h-247v70h383v-2zM280 710h92l-93 -139h-82z" />
    <glyph glyph-name="zcaron" unicode="&#x17e;" horiz-adv-x="474" 
d="M441 481l-270 -410h259v-71h-397v2l272 411h-247v70h383v-2zM383 710l-97 -139h-101l-97 139h78l70 -95l69 95h78z" />
    <glyph glyph-name="zdotaccent" unicode="&#x17c;" horiz-adv-x="474" 
d="M441 481l-270 -410h259v-71h-397v2l272 411h-247v70h383v-2zM182 691h108v-101h-108v101z" />
    <glyph glyph-name="ordfeminine" unicode="&#xaa;" horiz-adv-x="373" 
d="M318 680v-317h-63v32q-34 -40 -86 -40h-5q-36 0 -66.5 19.5t-48.5 56t-18 84.5v13q0 48 18 84.5t48.5 56t66.5 19.5h5q52 0 86 -40v32h63zM224 422.5q17 10.5 27 26.5v145q-10 16 -27.5 26.5t-39.5 10.5h-4q-29 0 -49.5 -16.5t-27.5 -37.5q-2 -22 -2 -55q0 -37 2 -55
q8 -22 28 -38.5t49 -16.5h4q23 0 40 10.5z" />
    <glyph glyph-name="ordmasculine" unicode="&#xba;" horiz-adv-x="363" 
d="M105.5 373.5q-34.5 19.5 -54.5 56.5t-20 86v11q0 49 20 86t54.5 57t74.5 20h4q40 0 74 -20t54 -57t20 -86v-11q0 -49 -20 -86t-54 -56.5t-74 -19.5h-4q-40 0 -74.5 19.5zM184 411q28 0 48 16.5t27 37.5q3 15 3 57q0 43 -3 56q-7 22 -26.5 38.5t-48.5 16.5h-4
q-29 0 -49 -16.5t-28 -38.5q-2 -20 -2 -56q0 -39 2 -57q8 -22 28 -38t49 -16h4z" />
    <glyph glyph-name="uni0394" unicode="&#x394;" horiz-adv-x="619" 
d="M606 0h-593l295 705h2zM489 74l-182 444l-181 -444h363z" />
    <glyph glyph-name="uni03A9" unicode="&#x3a9;" horiz-adv-x="698" 
d="M640 77v-77h-247v80q64 13 102 59.5t49 106.5q3 42 3 105q0 64 -3 103q-8 42 -32.5 79t-65 61t-94.5 24h-6q-54 0 -94.5 -24t-65 -61t-32.5 -79q-3 -39 -3 -103q0 -63 3 -105q11 -60 49.5 -106.5t101.5 -59.5v-80h-247v77h116q-55 39 -85 105t-30 152v45q0 96 37.5 167.5
t103 109.5t146.5 38h6q81 0 146.5 -38t103 -109.5t37.5 -167.5v-45q0 -87 -30 -152.5t-85 -104.5h116z" />
    <glyph glyph-name="uni03BC" unicode="&#x3bc;" horiz-adv-x="558" 
d="M469 483v-483h-78v52q-23 -30 -56 -47t-69 -17h-2q-53 0 -92 34v-222h-83v683h83v-356q10 -28 36 -48t64 -20h2q32 0 63 17.5t49 47.5v359h83z" />
    <glyph glyph-name="pi" unicode="&#x3c0;" horiz-adv-x="606" 
d="M555 419h-79v-419h-83v419h-193v-419h-83v419h-67v64h505v-64z" />
    <glyph glyph-name="zero" unicode="0" horiz-adv-x="619" 
d="M184.5 20q-55.5 34 -88.5 99.5t-33 155.5v130q0 90 33 155.5t88.5 99.5t121.5 34h7q66 0 121.5 -34t88.5 -99.5t33 -155.5v-130q0 -90 -33 -155.5t-88.5 -99.5t-121.5 -34h-7q-66 0 -121.5 34zM313 59q42 0 74.5 20.5t51.5 50.5t26 61q3 41 3 149q0 109 -3 149
q-7 31 -26 61t-51.5 50.5t-74.5 20.5h-7q-42 0 -74 -20.5t-51 -50.5t-26 -61q-4 -36 -4 -149t4 -149q7 -31 26 -61t51 -50.5t74 -20.5h7z" />
    <glyph glyph-name="zero.tf" horiz-adv-x="600" 
d="M176 20q-55 34 -88 99.5t-33 155.5v130q0 90 33 155.5t88 99.5t121 34h6q66 0 121 -34t88 -99.5t33 -155.5v-130q0 -90 -33 -155.5t-88 -99.5t-121 -34h-6q-66 0 -121 34zM303 59q61 0 100 41t50 91q4 36 4 149t-4 149q-11 50 -50 91t-100 41h-6q-61 0 -100 -41t-50 -91
q-4 -36 -4 -149t4 -149q11 -50 50 -91t100 -41h6z" />
    <glyph glyph-name="one" unicode="1" horiz-adv-x="422" 
d="M264 0h-84v604h-94l37 76h141v-680z" />
    <glyph glyph-name="one.tf" horiz-adv-x="600" 
d="M359 0h-84v604h-94l37 76h141v-680z" />
    <glyph glyph-name="two" unicode="2" horiz-adv-x="562" 
d="M508 76v-76h-464v2l272 332q40 48 55.5 73.5t22.5 48.5q2 12 2 41q0 32 -2 42q-10 35 -41.5 59.5t-77.5 24.5h-5q-52 0 -84 -31.5t-40 -80.5h-86q10 81 67.5 132t141.5 51h6q56 0 103.5 -25t75 -69.5t27.5 -99.5v-2q0 -47 -22 -92.5t-80 -116.5l-177 -213h306z" />
    <glyph glyph-name="two.tf" horiz-adv-x="600" 
d="M530 76v-76h-464v2l272 332q40 48 55.5 73.5t22.5 48.5q2 12 2 41q0 32 -2 42q-10 35 -41.5 59.5t-77.5 24.5h-5q-52 0 -84 -31.5t-40 -80.5h-86q10 81 67.5 132t141.5 51h6q56 0 103.5 -25t75 -69.5t27.5 -99.5v-2q0 -47 -22 -92.5t-80 -116.5l-177 -213h306z" />
    <glyph glyph-name="three" unicode="3" horiz-adv-x="586" 
d="M426 389.5q44 -29.5 69.5 -76.5t25.5 -104v-6q0 -62 -30.5 -111.5t-82 -77.5t-113.5 -28h-5q-59 0 -109.5 24t-82.5 67t-37 98h87q6 -50 45 -84t97 -34h5q54 0 89 28.5t50 70.5q3 18 3 50q0 34 -3 50q-15 43 -49.5 71t-89.5 28h-102l173 249h-271v76h410v-2l-177 -253
q54 -6 98 -35.5z" />
    <glyph glyph-name="three.tf" horiz-adv-x="600" 
d="M435 389.5q44 -29.5 69.5 -76.5t25.5 -104v-6q0 -62 -30.5 -111.5t-82 -77.5t-113.5 -28h-5q-59 0 -109.5 24t-82.5 67t-37 98h87q6 -50 45 -84t97 -34h5q54 0 89 28.5t50 70.5q3 18 3 50q0 34 -3 50q-15 43 -49.5 71t-89.5 28h-102l173 249h-271v76h410v-2l-177 -253
q54 -6 98 -35.5z" />
    <glyph glyph-name="four" unicode="4" horiz-adv-x="605" 
d="M507 411v-411h-83v172h-378v2l237 506h88l-202 -432h255v163h83z" />
    <glyph glyph-name="four.tf" horiz-adv-x="600" 
d="M509 411v-411h-83v172h-378v2l237 506h88l-202 -432h255v163h83z" />
    <glyph glyph-name="five" unicode="5" horiz-adv-x="582" 
d="M184 10q-50 24 -82 67t-37 98h87q5 -50 44 -84t97 -34h5q54 0 89.5 28.5t49.5 70.5q3 18 3 50q0 34 -3 50q-14 43 -49 71t-90 28h-192v325h376v-76h-297v-178h121q60 0 110 -28t79.5 -77.5t29.5 -111.5v-6q0 -62 -30.5 -111.5t-82.5 -77.5t-114 -28h-5q-59 0 -109 24z
" />
    <glyph glyph-name="five.tf" horiz-adv-x="600" 
d="M192 10q-50 24 -82 67t-37 98h87q5 -50 44 -84t97 -34h5q54 0 89.5 28.5t49.5 70.5q3 18 3 50q0 34 -3 50q-14 43 -49 71t-90 28h-192v325h376v-76h-297v-178h121q60 0 110 -28t79.5 -77.5t29.5 -111.5v-6q0 -62 -30.5 -111.5t-82.5 -77.5t-114 -28h-5q-59 0 -109 24z
" />
    <glyph glyph-name="six" unicode="6" horiz-adv-x="577" 
d="M411.5 407.5q49.5 -28.5 79 -79t29.5 -113.5v-6q0 -64 -30.5 -114.5t-82 -79.5t-112.5 -29h-5q-61 0 -112.5 29t-82 79.5t-30.5 114.5v6q0 34 10 67.5t33 75.5l182 322h91l-147 -255q31 11 63 11h6q59 0 108.5 -28.5zM434 212q0 35 -2 53q-9 40 -46 71t-91 31h-5
q-54 0 -91 -31t-46 -71q-2 -18 -2 -53t2 -53q9 -39 46 -70.5t91 -31.5h5q54 0 91 31.5t46 70.5q2 18 2 53z" />
    <glyph glyph-name="six.tf" horiz-adv-x="600" 
d="M420.5 407.5q49.5 -28.5 79 -79t29.5 -113.5v-6q0 -64 -30.5 -114.5t-82 -79.5t-112.5 -29h-5q-61 0 -112.5 29t-82 79.5t-30.5 114.5v6q0 34 10 67.5t33 75.5l182 322h91l-147 -255q31 11 63 11h6q59 0 108.5 -28.5zM443 212q0 35 -2 53q-9 40 -46 71t-91 31h-5
q-54 0 -91 -31t-46 -71q-2 -18 -2 -53t2 -53q9 -39 46 -70.5t91 -31.5h5q54 0 91 31.5t46 70.5q2 18 2 53z" />
    <glyph glyph-name="seven" unicode="7" horiz-adv-x="536" 
d="M502 680v-2l-318 -678h-87l282 604h-324v76h447z" />
    <glyph glyph-name="seven.tf" horiz-adv-x="600" 
d="M545 680v-2l-318 -678h-87l282 604h-324v76h447z" />
    <glyph glyph-name="eight" unicode="8" horiz-adv-x="588" 
d="M495.5 295q31.5 -45 31.5 -102v-7q0 -57 -30.5 -102.5t-83 -71.5t-116.5 -26h-6q-64 0 -116.5 26t-83 72t-30.5 102v7q0 57 32 101.5t86 69.5q-41 23 -65 61t-24 84v7q0 50 26.5 90.5t72.5 63.5t102 23h6q56 0 102 -23t73 -63.5t27 -90.5v-7q0 -46 -24 -84t-65 -61
q54 -24 85.5 -69zM174 468q9 -30 40 -52t77 -22h6q46 0 77 21.5t40 52.5q2 16 2 41q0 29 -2 41q-9 30 -39.5 51.5t-77.5 21.5h-6q-46 0 -77 -21.5t-40 -51.5q-1 -6 -1 -41q0 -33 1 -41zM442 192q0 33 -2 47q-10 34 -49 62t-94 28h-6q-56 0 -94.5 -28t-47.5 -62
q-2 -16 -2 -47t2 -47q9 -34 47.5 -61.5t94.5 -27.5h6q56 0 94.5 27.5t48.5 61.5q2 16 2 47z" />
    <glyph glyph-name="eight.tf" horiz-adv-x="600" 
d="M503.5 295q31.5 -45 31.5 -102v-7q0 -57 -30.5 -102.5t-83 -71.5t-116.5 -26h-6q-64 0 -116.5 26t-83 72t-30.5 102v7q0 57 32 101.5t86 69.5q-41 23 -65 61t-24 84v7q0 50 26.5 90.5t72.5 63.5t102 23h6q56 0 102 -23t73 -63.5t27 -90.5v-7q0 -46 -24 -84t-65 -61
q54 -24 85.5 -69zM182 468q9 -30 40 -52t77 -22h6q46 0 77 21.5t40 52.5q2 16 2 41q0 29 -2 41q-9 30 -39.5 51.5t-77.5 21.5h-6q-46 0 -77 -21.5t-40 -51.5q-1 -6 -1 -41q0 -33 1 -41zM450 192q0 33 -2 47q-10 34 -49 62t-94 28h-6q-56 0 -94.5 -28t-47.5 -62
q-2 -16 -2 -47t2 -47q9 -34 47.5 -61.5t94.5 -27.5h6q56 0 94.5 27.5t48.5 61.5q2 16 2 47z" />
    <glyph glyph-name="nine" unicode="9" horiz-adv-x="569" 
d="M393.5 666q50.5 -28 80.5 -78t30 -113v-6q0 -34 -10 -68t-33 -75l-186 -326h-91l152 263q-31 -11 -60 -11h-5q-58 0 -107 28t-78 77.5t-29 111.5v6q0 63 30 113t80.5 78t110.5 28h5q60 0 110.5 -28zM418 472q0 35 -2 53q-9 38 -45 68t-88 30h-5q-52 0 -88 -30t-45 -68
q-2 -18 -2 -53t2 -53q9 -39 45 -68.5t88 -29.5h5q52 0 88 29.5t45 68.5q2 18 2 53z" />
    <glyph glyph-name="nine.tf" horiz-adv-x="600" 
d="M407.5 666q50.5 -28 80.5 -78t30 -113v-6q0 -34 -10 -68t-33 -75l-186 -326h-91l152 263q-31 -11 -60 -11h-5q-58 0 -107 28t-78 77.5t-29 111.5v6q0 63 30 113t80.5 78t110.5 28h5q60 0 110.5 -28zM432 472q0 35 -2 53q-9 38 -45 68t-88 30h-5q-52 0 -88 -30t-45 -68
q-2 -18 -2 -53t2 -53q9 -39 45 -68.5t88 -29.5h5q52 0 88 29.5t45 68.5q2 18 2 53z" />
    <glyph glyph-name="uni2080" unicode="&#x2080;" horiz-adv-x="437" 
d="M135 -87q-37 22 -59 63.5t-22 97.5v80q0 57 22 98.5t59 63.5t81 22h5q44 0 81 -22t58.5 -63.5t21.5 -98.5v-80q0 -56 -21.5 -97.5t-58.5 -63.5t-81 -22h-5q-44 0 -81 22zM221 -52q36 0 59.5 22t29.5 49q3 21 3 95t-3 96q-6 26 -30.5 48t-58.5 22h-5q-35 0 -58.5 -21.5
t-30.5 -48.5q-2 -16 -2 -96q0 -79 2 -95q6 -27 30 -49t59 -22h5z" />
    <glyph glyph-name="uni2081" unicode="&#x2081;" horiz-adv-x="314" 
d="M199 -100h-67v368h-65l29 60h103v-428z" />
    <glyph glyph-name="uni2082" unicode="&#x2082;" horiz-adv-x="401" 
d="M351 -39v-61h-309v1l177 212q39 47 47 72l1 26l-1 25q-6 19 -24.5 32.5t-45.5 13.5h-3q-30 0 -49.5 -18t-24.5 -47h-67q5 54 44.5 87.5t95.5 33.5h3q37 0 69 -16.5t51 -45t19 -64.5v-1q0 -30 -14 -59t-52 -73l-101 -118h184z" />
    <glyph glyph-name="uni2083" unicode="&#x2083;" horiz-adv-x="419" 
d="M328.5 125q34.5 -38 34.5 -91v-4q0 -40 -20.5 -71.5t-55 -49.5t-75.5 -18h-4q-60 0 -104.5 35t-48.5 90h69q3 -29 26.5 -49t57.5 -20h4q32 0 53.5 16t29.5 39q2 12 2 30t-2 30q-9 24 -30 39.5t-53 15.5h-75l106 151h-166v60h276v-1l-110 -156q51 -8 85.5 -46z" />
    <glyph glyph-name="uni2084" unicode="&#x2084;" horiz-adv-x="435" 
d="M358 163v-263h-65v104h-250v1l156 323h69l-127 -263h152v98h65z" />
    <glyph glyph-name="uni2085" unicode="&#x2085;" horiz-adv-x="416" 
d="M104.5 -74q-44.5 35 -48.5 90h68q4 -30 27.5 -49.5t57.5 -19.5h4q31 0 52.5 16t30.5 39q2 14 2 30t-2 30q-9 24 -30 39.5t-53 15.5h-130v211h253v-60h-191v-95h75q39 0 72 -18t52.5 -49.5t19.5 -71.5v-4q0 -40 -20.5 -71.5t-55 -49.5t-75.5 -18h-4q-60 0 -104.5 35z" />
    <glyph glyph-name="uni2086" unicode="&#x2086;" horiz-adv-x="410" 
d="M288 160.5q33 -18.5 52.5 -50.5t19.5 -72v-5q0 -40 -20.5 -72.5t-55 -51t-74.5 -18.5h-4q-41 0 -75.5 18.5t-55 51t-20.5 72.5v5q0 43 30 93l115 197h72l-93 -155q18 6 34 6h4q38 0 71 -18.5zM293 36q0 18 -2 32q-5 21 -27.5 39t-53.5 18h-4q-32 0 -54.5 -18t-27.5 -39
q-2 -12 -2 -34q0 -18 2 -30q5 -21 27.5 -39t54.5 -18h4q32 0 54 18t27 39q2 10 2 32z" />
    <glyph glyph-name="uni2087" unicode="&#x2087;" horiz-adv-x="389" 
d="M354 326v-1l-207 -427h-70l179 368h-205v60h303z" />
    <glyph glyph-name="uni2088" unicode="&#x2088;" horiz-adv-x="414" 
d="M343 82.5q19 -27.5 19 -61.5v-5q0 -36 -20 -65t-55 -45.5t-78 -16.5h-4q-43 0 -78 16.5t-55.5 45.5t-20.5 65v5q0 34 19 61.5t52 44.5q-25 15 -39 38.5t-14 50.5v5q0 49 39 82t97 33h4q57 0 96.5 -33t39.5 -82v-5q0 -27 -14 -50.5t-39 -38.5q32 -17 51 -44.5zM134 216
l1 -26q6 -16 24.5 -28t45.5 -12h4q27 0 45.5 12t24.5 28l1 26l-1 25q-6 16 -24.5 28t-45.5 12h-4q-26 0 -45 -12t-25 -28zM295 21l-1 28q-7 20 -30 34.5t-55 14.5h-4q-33 0 -56 -15.5t-29 -33.5q-2 -8 -2 -28t2 -28q6 -18 29.5 -33.5t55.5 -15.5h4q32 0 55 15t30 34z" />
    <glyph glyph-name="uni2089" unicode="&#x2089;" horiz-adv-x="405" 
d="M276 317.5q34 -18.5 54 -50.5t20 -72v-4q0 -42 -29 -93l-118 -200h-71l95 160q-18 -5 -32 -5h-3q-38 0 -70.5 18t-52 49.5t-19.5 70.5v4q0 40 20.5 72t54.5 50.5t74 18.5h3q40 0 74 -18.5zM283 194q0 15 -2 31q-6 22 -27.5 38.5t-51.5 16.5h-3q-31 0 -52.5 -16.5
t-27.5 -38.5q-2 -16 -2 -33q0 -13 2 -31q6 -21 27.5 -37.5t52.5 -16.5h3q31 0 52.5 17t26.5 37q2 18 2 33z" />
    <glyph glyph-name="zero.dnom" horiz-adv-x="437" 
d="M135 13q-37 22 -59 63.5t-22 97.5v80q0 57 22 98.5t59 63.5t81 22h5q44 0 81 -22t58.5 -63.5t21.5 -98.5v-80q0 -56 -21.5 -97.5t-58.5 -63.5t-81 -22h-5q-44 0 -81 22zM221 48q36 0 59.5 22t29.5 49q3 21 3 95t-3 96q-6 26 -30.5 48t-58.5 22h-5q-35 0 -58.5 -21.5
t-30.5 -48.5q-2 -16 -2 -96q0 -79 2 -95q6 -27 30 -49t59 -22h5z" />
    <glyph glyph-name="one.dnom" horiz-adv-x="314" 
d="M199 0h-67v368h-65l29 60h103v-428z" />
    <glyph glyph-name="two.dnom" horiz-adv-x="401" 
d="M351 61v-61h-309v1l177 212q39 47 47 72l1 26l-1 25q-6 19 -24.5 32.5t-45.5 13.5h-3q-30 0 -49.5 -18t-24.5 -47h-67q5 54 44.5 87.5t95.5 33.5h3q37 0 69 -16.5t51 -45t19 -64.5v-1q0 -30 -14 -59t-52 -73l-101 -118h184z" />
    <glyph glyph-name="three.dnom" horiz-adv-x="419" 
d="M328.5 225q34.5 -38 34.5 -91v-4q0 -40 -20.5 -71.5t-55 -49.5t-75.5 -18h-4q-60 0 -104.5 35t-48.5 90h69q3 -29 26.5 -49t57.5 -20h4q32 0 53.5 16t29.5 39q2 12 2 30t-2 30q-9 24 -30 39.5t-53 15.5h-75l106 151h-166v60h276v-1l-110 -156q51 -8 85.5 -46z" />
    <glyph glyph-name="four.dnom" horiz-adv-x="435" 
d="M358 263v-263h-65v104h-250v1l156 323h69l-127 -263h152v98h65z" />
    <glyph glyph-name="five.dnom" horiz-adv-x="416" 
d="M104.5 26q-44.5 35 -48.5 90h68q4 -30 27.5 -49.5t57.5 -19.5h4q31 0 52.5 16t30.5 39q2 14 2 30t-2 30q-9 24 -30 39.5t-53 15.5h-130v211h253v-60h-191v-95h75q39 0 72 -18t52.5 -49.5t19.5 -71.5v-4q0 -40 -20.5 -71.5t-55 -49.5t-75.5 -18h-4q-60 0 -104.5 35z" />
    <glyph glyph-name="six.dnom" horiz-adv-x="410" 
d="M288 260.5q33 -18.5 52.5 -50.5t19.5 -72v-5q0 -40 -20.5 -72.5t-55 -51t-74.5 -18.5h-4q-41 0 -75.5 18.5t-55 51t-20.5 72.5v5q0 43 30 93l115 197h72l-93 -155q18 6 34 6h4q38 0 71 -18.5zM293 136q0 18 -2 32q-5 21 -27.5 39t-53.5 18h-4q-32 0 -54.5 -18t-27.5 -39
q-2 -12 -2 -34q0 -18 2 -30q5 -21 27.5 -39t54.5 -18h4q32 0 54 18t27 39q2 10 2 32z" />
    <glyph glyph-name="seven.dnom" horiz-adv-x="389" 
d="M354 428v-1l-207 -427h-70l179 368h-205v60h303z" />
    <glyph glyph-name="eight.dnom" horiz-adv-x="414" 
d="M343 184.5q19 -27.5 19 -61.5v-5q0 -36 -20 -65t-55 -45.5t-78 -16.5h-4q-43 0 -78 16.5t-55.5 45.5t-20.5 65v5q0 34 19 61.5t52 44.5q-25 15 -39 38.5t-14 50.5v5q0 49 39 82t97 33h4q57 0 96.5 -33t39.5 -82v-5q0 -27 -14 -50.5t-39 -38.5q32 -17 51 -44.5zM134 318
l1 -26q6 -16 24.5 -28t45.5 -12h4q27 0 45.5 12t24.5 28l1 26l-1 25q-6 16 -24.5 28t-45.5 12h-4q-26 0 -45 -12t-25 -28zM295 123l-1 28q-7 20 -30 34.5t-55 14.5h-4q-33 0 -56 -15.5t-29 -33.5q-2 -8 -2 -28t2 -28q6 -18 29.5 -33.5t55.5 -15.5h4q32 0 55 15t30 34z" />
    <glyph glyph-name="nine.dnom" horiz-adv-x="405" 
d="M276 419.5q34 -18.5 54 -50.5t20 -72v-4q0 -42 -29 -93l-118 -200h-71l95 160q-18 -5 -32 -5h-3q-38 0 -70.5 18t-52 49.5t-19.5 70.5v4q0 40 20.5 72t54.5 50.5t74 18.5h3q40 0 74 -18.5zM283 296q0 15 -2 31q-6 22 -27.5 38.5t-51.5 16.5h-3q-31 0 -52.5 -16.5
t-27.5 -38.5q-2 -16 -2 -33q0 -13 2 -31q6 -21 27.5 -37.5t52.5 -16.5h3q31 0 52.5 17t26.5 37q2 18 2 33z" />
    <glyph glyph-name="zero.numr" horiz-adv-x="437" 
d="M135 265q-37 22 -59 63.5t-22 97.5v80q0 57 22 98.5t59 63.5t81 22h5q44 0 81 -22t58.5 -63.5t21.5 -98.5v-80q0 -56 -21.5 -97.5t-58.5 -63.5t-81 -22h-5q-44 0 -81 22zM221 300q36 0 59.5 22t29.5 49q3 21 3 95t-3 96q-6 26 -30.5 48t-58.5 22h-5q-35 0 -58.5 -21.5
t-30.5 -48.5q-2 -16 -2 -96q0 -79 2 -95q6 -27 30 -49t59 -22h5z" />
    <glyph glyph-name="one.numr" horiz-adv-x="314" 
d="M199 252h-67v368h-65l29 60h103v-428z" />
    <glyph glyph-name="two.numr" horiz-adv-x="401" 
d="M351 313v-61h-309v1l177 212q39 47 47 72l1 26l-1 25q-6 19 -24.5 32.5t-45.5 13.5h-3q-30 0 -49.5 -18t-24.5 -47h-67q5 54 44.5 87.5t95.5 33.5h3q37 0 69 -16.5t51 -45t19 -64.5v-1q0 -30 -14 -59t-52 -73l-101 -118h184z" />
    <glyph glyph-name="three.numr" horiz-adv-x="419" 
d="M328.5 477q34.5 -38 34.5 -91v-4q0 -40 -20.5 -71.5t-55 -49.5t-75.5 -18h-4q-60 0 -104.5 35t-48.5 90h69q3 -29 26.5 -49t57.5 -20h4q32 0 53.5 16t29.5 39q2 12 2 30t-2 30q-9 24 -30 39.5t-53 15.5h-75l106 151h-166v60h276v-1l-110 -156q51 -8 85.5 -46z" />
    <glyph glyph-name="four.numr" horiz-adv-x="435" 
d="M358 515v-263h-65v104h-250v1l156 323h69l-127 -263h152v98h65z" />
    <glyph glyph-name="five.numr" horiz-adv-x="416" 
d="M104.5 278q-44.5 35 -48.5 90h68q4 -30 27.5 -49.5t57.5 -19.5h4q31 0 52.5 16t30.5 39q2 14 2 30t-2 30q-9 24 -30 39.5t-53 15.5h-130v211h253v-60h-191v-95h75q39 0 72 -18t52.5 -49.5t19.5 -71.5v-4q0 -40 -20.5 -71.5t-55 -49.5t-75.5 -18h-4q-60 0 -104.5 35z" />
    <glyph glyph-name="six.numr" horiz-adv-x="410" 
d="M288 512.5q33 -18.5 52.5 -50.5t19.5 -72v-5q0 -40 -20.5 -72.5t-55 -51t-74.5 -18.5h-4q-41 0 -75.5 18.5t-55 51t-20.5 72.5v5q0 43 30 93l115 197h72l-93 -155q18 6 34 6h4q38 0 71 -18.5zM293 388q0 18 -2 32q-5 21 -27.5 39t-53.5 18h-4q-32 0 -54.5 -18t-27.5 -39
q-2 -12 -2 -34q0 -18 2 -30q5 -21 27.5 -39t54.5 -18h4q32 0 54 18t27 39q2 10 2 32z" />
    <glyph glyph-name="seven.numr" horiz-adv-x="389" 
d="M354 680v-1l-207 -427h-70l179 368h-205v60h303z" />
    <glyph glyph-name="eight.numr" horiz-adv-x="414" 
d="M343 436.5q19 -27.5 19 -61.5v-5q0 -36 -20 -65t-55 -45.5t-78 -16.5h-4q-43 0 -78 16.5t-55.5 45.5t-20.5 65v5q0 34 19 61.5t52 44.5q-25 15 -39 38.5t-14 50.5v5q0 49 39 82t97 33h4q57 0 96.5 -33t39.5 -82v-5q0 -27 -14 -50.5t-39 -38.5q32 -17 51 -44.5zM134 570
l1 -26q6 -16 24.5 -28t45.5 -12h4q27 0 45.5 12t24.5 28l1 26l-1 25q-6 16 -24.5 28t-45.5 12h-4q-26 0 -45 -12t-25 -28zM295 375l-1 28q-7 20 -30 34.5t-55 14.5h-4q-33 0 -56 -15.5t-29 -33.5q-2 -8 -2 -28t2 -28q6 -18 29.5 -33.5t55.5 -15.5h4q32 0 55 15t30 34z" />
    <glyph glyph-name="nine.numr" horiz-adv-x="405" 
d="M276 671.5q34 -18.5 54 -50.5t20 -72v-4q0 -42 -29 -93l-118 -200h-71l95 160q-18 -5 -32 -5h-3q-38 0 -70.5 18t-52 49.5t-19.5 70.5v4q0 40 20.5 72t54.5 50.5t74 18.5h3q40 0 74 -18.5zM283 548q0 15 -2 31q-6 22 -27.5 38.5t-51.5 16.5h-3q-31 0 -52.5 -16.5
t-27.5 -38.5q-2 -16 -2 -33q0 -13 2 -31q6 -21 27.5 -37.5t52.5 -16.5h3q31 0 52.5 17t26.5 37q2 18 2 33z" />
    <glyph glyph-name="uni2070" unicode="&#x2070;" horiz-adv-x="437" 
d="M135 363q-37 22 -59 63.5t-22 97.5v80q0 57 22 98.5t59 63.5t81 22h5q44 0 81 -22t58.5 -63.5t21.5 -98.5v-80q0 -56 -21.5 -97.5t-58.5 -63.5t-81 -22h-5q-44 0 -81 22zM221 398q36 0 59.5 22t29.5 49q3 21 3 95t-3 96q-6 26 -30.5 48t-58.5 22h-5q-35 0 -58.5 -21.5
t-30.5 -48.5q-2 -16 -2 -96q0 -79 2 -95q6 -27 30 -49t59 -22h5z" />
    <glyph glyph-name="uni00B9" unicode="&#xb9;" horiz-adv-x="314" 
d="M199 350h-67v368h-65l29 60h103v-428z" />
    <glyph glyph-name="uni00B2" unicode="&#xb2;" horiz-adv-x="401" 
d="M351 411v-61h-309v1l177 212q39 47 47 72l1 26l-1 25q-6 19 -24.5 32.5t-45.5 13.5h-3q-30 0 -49.5 -18t-24.5 -47h-67q5 54 44.5 87.5t95.5 33.5h3q37 0 69 -16.5t51 -45t19 -64.5v-1q0 -30 -14 -59t-52 -73l-101 -118h184z" />
    <glyph glyph-name="uni00B3" unicode="&#xb3;" horiz-adv-x="419" 
d="M328.5 575q34.5 -38 34.5 -91v-4q0 -40 -20.5 -71.5t-55 -49.5t-75.5 -18h-4q-60 0 -104.5 35t-48.5 90h69q3 -29 26.5 -49t57.5 -20h4q32 0 53.5 16t29.5 39q2 12 2 30t-2 30q-9 24 -30 39.5t-53 15.5h-75l106 151h-166v60h276v-1l-110 -156q51 -8 85.5 -46z" />
    <glyph glyph-name="uni2074" unicode="&#x2074;" horiz-adv-x="435" 
d="M358 613v-263h-65v104h-250v1l156 323h69l-127 -263h152v98h65z" />
    <glyph glyph-name="uni2075" unicode="&#x2075;" horiz-adv-x="416" 
d="M104.5 376q-44.5 35 -48.5 90h68q4 -30 27.5 -49.5t57.5 -19.5h4q31 0 52.5 16t30.5 39q2 14 2 30t-2 30q-9 24 -30 39.5t-53 15.5h-130v211h253v-60h-191v-95h75q39 0 72 -18t52.5 -49.5t19.5 -71.5v-4q0 -40 -20.5 -71.5t-55 -49.5t-75.5 -18h-4q-60 0 -104.5 35z" />
    <glyph glyph-name="uni2076" unicode="&#x2076;" horiz-adv-x="410" 
d="M288 610.5q33 -18.5 52.5 -50.5t19.5 -72v-5q0 -40 -20.5 -72.5t-55 -51t-74.5 -18.5h-4q-41 0 -75.5 18.5t-55 51t-20.5 72.5v5q0 43 30 93l115 197h72l-93 -155q18 6 34 6h4q38 0 71 -18.5zM293 486q0 18 -2 32q-5 21 -27.5 39t-53.5 18h-4q-32 0 -54.5 -18t-27.5 -39
q-2 -12 -2 -34q0 -18 2 -30q5 -21 27.5 -39t54.5 -18h4q32 0 54 18t27 39q2 10 2 32z" />
    <glyph glyph-name="uni2077" unicode="&#x2077;" horiz-adv-x="389" 
d="M354 778v-1l-207 -427h-70l179 368h-205v60h303z" />
    <glyph glyph-name="uni2078" unicode="&#x2078;" horiz-adv-x="414" 
d="M343 534.5q19 -27.5 19 -61.5v-5q0 -36 -20 -65t-55 -45.5t-78 -16.5h-4q-43 0 -78 16.5t-55.5 45.5t-20.5 65v5q0 34 19 61.5t52 44.5q-25 15 -39 38.5t-14 50.5v5q0 49 39 82t97 33h4q57 0 96.5 -33t39.5 -82v-5q0 -27 -14 -50.5t-39 -38.5q32 -17 51 -44.5zM134 668
l1 -26q6 -16 24.5 -28t45.5 -12h4q27 0 45.5 12t24.5 28l1 26l-1 25q-6 16 -24.5 28t-45.5 12h-4q-26 0 -45 -12t-25 -28zM295 473l-1 28q-7 20 -30 34.5t-55 14.5h-4q-33 0 -56 -15.5t-29 -33.5q-2 -8 -2 -28t2 -28q6 -18 29.5 -33.5t55.5 -15.5h4q32 0 55 15t30 34z" />
    <glyph glyph-name="uni2079" unicode="&#x2079;" horiz-adv-x="405" 
d="M276 769.5q34 -18.5 54 -50.5t20 -72v-4q0 -42 -29 -93l-118 -200h-71l95 160q-18 -5 -32 -5h-3q-38 0 -70.5 18t-52 49.5t-19.5 70.5v4q0 40 20.5 72t54.5 50.5t74 18.5h3q40 0 74 -18.5zM283 646q0 15 -2 31q-6 22 -27.5 38.5t-51.5 16.5h-3q-31 0 -52.5 -16.5
t-27.5 -38.5q-2 -16 -2 -33q0 -13 2 -31q6 -21 27.5 -37.5t52.5 -16.5h3q31 0 52.5 17t26.5 37q2 18 2 33z" />
    <glyph glyph-name="fraction" unicode="&#x2044;" horiz-adv-x="226" 
d="M329 680h75l-506 -680h-75z" />
    <glyph glyph-name="onehalf" unicode="&#xbd;" horiz-adv-x="942" 
d="M199 252h-67v368h-65l29 60h103v-428zM643 680h75l-506 -680h-75zM891 61v-61h-309v1l177 212q39 47 47 72l1 26l-1 25q-6 19 -24.5 32.5t-45.5 13.5h-3q-30 0 -49.5 -18t-24.5 -47h-67q5 54 44.5 87.5t95.5 33.5h3q37 0 69 -16.5t51 -45t19 -64.5v-1q0 -30 -14 -59
t-52 -73l-101 -118h184z" />
    <glyph glyph-name="onequarter" unicode="&#xbc;" horiz-adv-x="941" 
d="M199 252h-67v368h-65l29 60h103v-428zM643 680h75l-506 -680h-75zM864 263v-263h-65v104h-250v1l156 323h69l-127 -263h152v98h65z" />
    <glyph glyph-name="threequarters" unicode="&#xbe;" horiz-adv-x="1046" 
d="M328.5 477q34.5 -38 34.5 -91v-4q0 -40 -20.5 -71.5t-55 -49.5t-75.5 -18h-4q-60 0 -104.5 35t-48.5 90h69q3 -29 26.5 -49t57.5 -20h4q32 0 53.5 16t29.5 39q2 12 2 30t-2 30q-9 24 -30 39.5t-53 15.5h-75l106 151h-166v60h276v-1l-110 -156q51 -8 85.5 -46zM748 680h75
l-506 -680h-75zM970 263v-263h-65v104h-250v1l156 323h69l-127 -263h152v98h65z" />
    <glyph glyph-name="oneeighth" unicode="&#x215b;" horiz-adv-x="954" 
d="M199 252h-67v368h-65l29 60h103v-428zM643 680h75l-506 -680h-75zM883 184.5q19 -27.5 19 -61.5v-5q0 -36 -20 -65t-55 -45.5t-78 -16.5h-4q-43 0 -78 16.5t-55.5 45.5t-20.5 65v5q0 34 19 61.5t52 44.5q-25 15 -39 38.5t-14 50.5v5q0 49 39 82t97 33h4q57 0 96.5 -33
t39.5 -82v-5q0 -27 -14 -50.5t-39 -38.5q32 -17 51 -44.5zM674 318l1 -26q6 -16 24.5 -28t45.5 -12h4q27 0 45.5 12t24.5 28l1 26l-1 25q-6 16 -24.5 28t-45.5 12h-4q-26 0 -45 -12t-25 -28zM835 123l-1 28q-7 20 -30 34.5t-55 14.5h-4q-33 0 -56 -15.5t-29 -33.5
q-2 -8 -2 -28t2 -28q6 -18 29.5 -33.5t55.5 -15.5h4q32 0 55 15t30 34z" />
    <glyph glyph-name="threeeighths" unicode="&#x215c;" horiz-adv-x="1059" 
d="M328.5 477q34.5 -38 34.5 -91v-4q0 -40 -20.5 -71.5t-55 -49.5t-75.5 -18h-4q-60 0 -104.5 35t-48.5 90h69q3 -29 26.5 -49t57.5 -20h4q32 0 53.5 16t29.5 39q2 12 2 30t-2 30q-9 24 -30 39.5t-53 15.5h-75l106 151h-166v60h276v-1l-110 -156q51 -8 85.5 -46zM748 680h75
l-506 -680h-75zM989 184.5q19 -27.5 19 -61.5v-5q0 -36 -20 -65t-55 -45.5t-78 -16.5h-4q-43 0 -78 16.5t-55.5 45.5t-20.5 65v5q0 34 19 61.5t52 44.5q-25 15 -39 38.5t-14 50.5v5q0 49 39 82t97 33h4q57 0 96.5 -33t39.5 -82v-5q0 -27 -14 -50.5t-39 -38.5
q32 -17 51 -44.5zM780 318l1 -26q6 -16 24.5 -28t45.5 -12h4q27 0 45.5 12t24.5 28l1 26l-1 25q-6 16 -24.5 28t-45.5 12h-4q-26 0 -45 -12t-25 -28zM941 123l-1 28q-7 20 -30 34.5t-55 14.5h-4q-33 0 -56 -15.5t-29 -33.5q-2 -8 -2 -28t2 -28q6 -18 29.5 -33.5t55.5 -15.5
h4q32 0 55 15t30 34z" />
    <glyph glyph-name="fiveeighths" unicode="&#x215d;" horiz-adv-x="1056" 
d="M104.5 278q-44.5 35 -48.5 90h68q4 -30 27.5 -49.5t57.5 -19.5h4q31 0 52.5 16t30.5 39q2 14 2 30t-2 30q-9 24 -30 39.5t-53 15.5h-130v211h253v-60h-191v-95h75q39 0 72 -18t52.5 -49.5t19.5 -71.5v-4q0 -40 -20.5 -71.5t-55 -49.5t-75.5 -18h-4q-60 0 -104.5 35z
M745 680h75l-506 -680h-75zM985 184.5q19 -27.5 19 -61.5v-5q0 -36 -20 -65t-55 -45.5t-78 -16.5h-4q-43 0 -78 16.5t-55.5 45.5t-20.5 65v5q0 34 19 61.5t52 44.5q-25 15 -39 38.5t-14 50.5v5q0 49 39 82t97 33h4q57 0 96.5 -33t39.5 -82v-5q0 -27 -14 -50.5t-39 -38.5
q32 -17 51 -44.5zM776 318l1 -26q6 -16 24.5 -28t45.5 -12h4q27 0 45.5 12t24.5 28l1 26l-1 25q-6 16 -24.5 28t-45.5 12h-4q-26 0 -45 -12t-25 -28zM937 123l-1 28q-7 20 -30 34.5t-55 14.5h-4q-33 0 -56 -15.5t-29 -33.5q-2 -8 -2 -28t2 -28q6 -18 29.5 -33.5t55.5 -15.5
h4q32 0 55 15t30 34z" />
    <glyph glyph-name="seveneighths" unicode="&#x215e;" horiz-adv-x="988" 
d="M354 680v-1l-207 -427h-70l179 368h-205v60h303zM677 680h75l-506 -680h-75zM917 184.5q19 -27.5 19 -61.5v-5q0 -36 -20 -65t-55 -45.5t-78 -16.5h-4q-43 0 -78 16.5t-55.5 45.5t-20.5 65v5q0 34 19 61.5t52 44.5q-25 15 -39 38.5t-14 50.5v5q0 49 39 82t97 33h4
q57 0 96.5 -33t39.5 -82v-5q0 -27 -14 -50.5t-39 -38.5q32 -17 51 -44.5zM708 318l1 -26q6 -16 24.5 -28t45.5 -12h4q27 0 45.5 12t24.5 28l1 26l-1 25q-6 16 -24.5 28t-45.5 12h-4q-26 0 -45 -12t-25 -28zM869 123l-1 28q-7 20 -30 34.5t-55 14.5h-4q-33 0 -56 -15.5
t-29 -33.5q-2 -8 -2 -28t2 -28q6 -18 29.5 -33.5t55.5 -15.5h4q32 0 55 15t30 34z" />
    <glyph glyph-name="period" unicode="." horiz-adv-x="257" 
d="M76 111h105v-111h-105v111z" />
    <glyph glyph-name="comma" unicode="," horiz-adv-x="233" 
d="M76 111h80v-156l-79 -65h-1v221z" />
    <glyph glyph-name="colon" unicode=":" horiz-adv-x="277" 
d="M86 111h105v-111h-105v111zM86 483h105v-111h-105v111z" />
    <glyph glyph-name="semicolon" unicode=";" horiz-adv-x="277" 
d="M100 111h80v-156l-79 -65h-1v221zM86 483h105v-111h-105v111z" />
    <glyph glyph-name="ellipsis" unicode="&#x2026;" horiz-adv-x="739" 
d="M557 111h105v-111h-105v111zM317 111h105v-111h-105v111zM76 111h105v-111h-105v111z" />
    <glyph glyph-name="exclam" unicode="!" horiz-adv-x="327" 
d="M116 680h96l-14 -470h-68zM111 111h105v-111h-105v111z" />
    <glyph glyph-name="exclamdown" unicode="&#xa1;" horiz-adv-x="327" 
d="M216 372h-105v111h105v-111zM212 -197h-97l15 470h67z" />
    <glyph glyph-name="question" unicode="?" horiz-adv-x="487" 
d="M290 358q31 50 43.5 75.5t15.5 41.5q2 12 2 41q0 24 -2 36q-8 28 -35.5 48.5t-66.5 20.5h-5q-46 0 -74.5 -27.5t-34.5 -73.5h-87q5 50 32 89t69.5 61t93.5 22h6q51 0 94.5 -23t69 -63.5t25.5 -90.5v-7q0 -39 -18 -77t-64 -108l-72 -116h-85zM185 111h105v-111h-105v111z
" />
    <glyph glyph-name="questiondown" unicode="&#xbf;" horiz-adv-x="441" 
d="M302 372h-106v111h106v-111zM196 125q-30 -48 -42.5 -73.5t-15.5 -42.5q-2 -14 -2 -41q0 -25 2 -37q8 -28 35.5 -48.5t66.5 -20.5h4q46 0 75 27.5t35 73.5h87q-5 -50 -32 -89t-69.5 -61t-93.5 -22h-6q-51 0 -94.5 23t-69 63.5t-25.5 90.5v7q0 39 18.5 78t63.5 108l72 115
h85z" />
    <glyph glyph-name="periodcentered" unicode="&#xb7;" horiz-adv-x="257" 
d="M76 375h105v-111h-105v111z" />
    <glyph glyph-name="bullet" unicode="&#x2022;" horiz-adv-x="537" 
d="M183 180q-39 23 -62 61.5t-23 84.5t23 84.5t62 61.5t85 23t85 -23t62 -61.5t23 -84.5t-23 -84.5t-62 -61.5t-85 -23t-85 23z" />
    <glyph glyph-name="asterisk" unicode="*" horiz-adv-x="515" 
d="M288 538l135 -56l-34 -58l-116 88l18 -145h-67l18 144l-116 -87l-34 58l135 57l-135 56l34 58l116 -88l-18 145h67l-18 -145l116 88l34 -58z" />
    <glyph glyph-name="numbersign" unicode="#" horiz-adv-x="680" 
d="M502 430l-38 -179h144l-11 -51h-144l-42 -200h-53l42 200h-180l-42 -200h-53l42 200h-143l11 51h143l38 179h-144l11 51h144l42 199h53l-42 -199h180l42 199h53l-42 -199h144l-11 -51h-144zM449 430h-180l-38 -179h180z" />
    <glyph glyph-name="slash" unicode="/" horiz-adv-x="468" 
d="M336 710h76l-290 -790h-76z" />
    <glyph glyph-name="backslash" unicode="\" horiz-adv-x="468" 
d="M346 -80l-290 790h76l290 -790h-76z" />
    <glyph glyph-name="parenleft" unicode="(" horiz-adv-x="326" 
d="M116.5 95q-30.5 90 -30.5 208v34q0 118 30.5 208t80.5 165h76q-41 -56 -67.5 -137t-34.5 -161q-1 -23 -1 -92q0 -68 1 -92q8 -80 34.5 -161t67.5 -137h-76q-50 75 -80.5 165z" />
    <glyph glyph-name="parenright" unicode=")" horiz-adv-x="326" 
d="M209.5 545q30.5 -90 30.5 -208v-34q0 -118 -30.5 -208t-80.5 -165h-77q42 56 68.5 137t34.5 161q1 23 1 92q0 68 -1 92q-8 80 -34.5 161t-68.5 137h77q50 -75 80.5 -165z" />
    <glyph glyph-name="braceleft" unicode="{" horiz-adv-x="368" 
d="M195.5 362.5q-21.5 -30.5 -51.5 -41.5q30 -11 51.5 -41.5t21.5 -77.5v-150q8 -30 25.5 -45t57.5 -15h25v-61h-35q-71 0 -112.5 40.5t-41.5 139.5v131q-7 22 -22 35.5t-39 13.5h-13v61h13q24 0 39.5 13t21.5 35v130q0 99 41.5 139.5t112.5 40.5h35v-61h-25
q-40 0 -57.5 -15t-25.5 -45v-148q0 -48 -21.5 -78.5z" />
    <glyph glyph-name="braceright" unicode="}" horiz-adv-x="368" 
d="M306 350v-60h-13q-45 0 -60 -49v-130q0 -99 -41.5 -139.5t-112.5 -40.5h-35v61h25q40 0 57.5 15t24.5 45v148q0 48 22 78.5t52 41.5q-30 11 -52 41.5t-22 78.5v149q-7 30 -24.5 45t-57.5 15h-25v61h35q71 0 112.5 -40.5t41.5 -139.5v-131q15 -49 60 -49h13z" />
    <glyph glyph-name="bracketleft" unicode="[" horiz-adv-x="366" 
d="M177 649v-658h131v-61h-210v780h210v-61h-131z" />
    <glyph glyph-name="bracketright" unicode="]" horiz-adv-x="366" 
d="M267 -70h-209v61h131v658h-131v61h209v-780z" />
    <glyph glyph-name="hyphen" unicode="-" horiz-adv-x="365" 
d="M60 333h245v-76h-245v76z" />
    <glyph glyph-name="uni00AD" unicode="&#xad;" horiz-adv-x="365" 
d="M60 333h245v-76h-245v76z" />
    <glyph glyph-name="endash" unicode="&#x2013;" horiz-adv-x="699" 
d="M70 330h559v-70h-559v70z" />
    <glyph glyph-name="emdash" unicode="&#x2014;" horiz-adv-x="1005" 
d="M70 330h865v-70h-865v70z" />
    <glyph glyph-name="underscore" unicode="_" horiz-adv-x="526" 
d="M-5 -82h536v-46h-536v46z" />
    <glyph glyph-name="quotesinglbase" unicode="&#x201a;" horiz-adv-x="230" 
d="M76 111h78v-155l-77 -62h-1v217z" />
    <glyph glyph-name="quotedblbase" unicode="&#x201e;" horiz-adv-x="392" 
d="M76 111h78v-155l-77 -62h-1v217zM238 111h78v-155l-77 -62h-1v217z" />
    <glyph glyph-name="quotedblleft" unicode="&#x201c;" horiz-adv-x="393" 
d="M154 473h-78v155l77 62h1v-217zM317 473h-78v155l77 62h1v-217z" />
    <glyph glyph-name="quotedblright" unicode="&#x201d;" horiz-adv-x="393" 
d="M76 680h78v-155l-77 -62h-1v217zM239 680h78v-155l-77 -62h-1v217z" />
    <glyph glyph-name="quoteleft" unicode="&#x2018;" horiz-adv-x="230" 
d="M154 473h-78v155l77 62h1v-217z" />
    <glyph glyph-name="quoteright" unicode="&#x2019;" horiz-adv-x="230" 
d="M76 680h78v-155l-77 -62h-1v217z" />
    <glyph glyph-name="guillemotleft" unicode="&#xab;" horiz-adv-x="574" 
d="M270 262l148 197h79l-151 -197l151 -197h-79zM69 262l148 197h79l-151 -197l151 -197h-79z" />
    <glyph glyph-name="guillemotright" unicode="&#xbb;" horiz-adv-x="574" 
d="M277 65l151 197l-151 197h79l149 -197l-149 -197h-79zM76 65l151 197l-151 197h79l149 -197l-149 -197h-79z" />
    <glyph glyph-name="guilsinglleft" unicode="&#x2039;" horiz-adv-x="372" 
d="M69 262l148 197h79l-151 -197l151 -197h-79z" />
    <glyph glyph-name="guilsinglright" unicode="&#x203a;" horiz-adv-x="372" 
d="M76 65l151 197l-151 197h79l149 -197l-149 -197h-79z" />
    <glyph glyph-name="quotedbl" unicode="&#x22;" horiz-adv-x="399" 
d="M76 680h78v-198h-78v198zM246 680h78v-198h-78v198z" />
    <glyph glyph-name="quotesingle" unicode="'" horiz-adv-x="230" 
d="M76 680h78v-198h-78v198z" />
    <glyph glyph-name="cent" unicode="&#xa2;" horiz-adv-x="510" 
d="M402.5 506q-31.5 17 -66.5 20v-368q64 5 123 60v-83q-19 -17 -52 -31t-71 -17v-87h-44v88q-56 6 -102.5 36.5t-73.5 84t-27 124.5v18q0 71 27 124.5t73.5 84t102.5 36.5v84h44v-83q38 -3 71 -17.5t52 -31.5v-83q-25 24 -56.5 41zM220.5 195.5q29.5 -26.5 71.5 -34.5v362
q-42 -8 -71.5 -35t-40.5 -59q-4 -30 -4 -87q0 -56 4 -88q11 -32 40.5 -58.5z" />
    <glyph glyph-name="currency" unicode="&#xa4;" horiz-adv-x="694" 
d="M521 178l68 -68l-38 -38l-68 69q-60 -47 -136 -47t-136 47l-68 -69l-38 38l68 68q-47 62 -47 137q0 74 47 136l-68 67l38 38l68 -68q28 23 63 35.5t73 12.5t73 -12.5t63 -35.5l68 68l38 -38l-68 -68q47 -58 47 -135q0 -75 -47 -137zM210.5 234q21.5 -37 57.5 -58.5
t79 -21.5t79 21.5t57.5 58.5t21.5 81q0 43 -21.5 80t-57.5 58.5t-79 21.5t-79 -21.5t-57.5 -58.5t-21.5 -80q0 -44 21.5 -81z" />
    <glyph glyph-name="dollar" unicode="$" horiz-adv-x="594" 
d="M476.5 288.5q35.5 -40.5 35.5 -107.5v-3q0 -77 -51.5 -130t-132.5 -61v-76h-44v76q-56 3 -101.5 28t-73 66.5t-30.5 93.5h80q5 -49 40 -82t85 -38v275l-58 33q-54 32 -86 69t-32 93v3q0 45 23.5 82.5t64 59.5t88.5 23v58h44v-61q52 -8 93.5 -38.5t66.5 -70.5l-60 -41
q-43 64 -100 79v-224l54 -32q59 -34 94.5 -74.5zM284 420v204q-46 -2 -74 -32.5t-24 -78.5q7 -24 26 -42.5t59 -42.5zM408.5 101.5q29.5 37.5 26.5 94.5q-8 29 -29 52.5t-67 50.5l-11 6v-249q51 8 80.5 45.5z" />
    <glyph glyph-name="Euro" unicode="&#x20ac;" horiz-adv-x="631" 
d="M299 566.5q-48 -49.5 -57 -120.5h226v-50h-227v-95h227v-49h-227q2 -50 24 -93t63 -69.5t96 -26.5h8q34 0 61 7.5t53 23.5v-77q-54 -31 -118 -31h-7q-69 0 -125.5 31t-93 91t-46.5 144h-81v49h78v10v58q0 18 1 27h-79v50h84q18 117 89 182t173 65h7q34 0 62 -8t56 -23
v-78q-27 16 -54 24t-60 8h-8q-77 0 -125 -49.5z" />
    <glyph glyph-name="florin" unicode="&#x192;" horiz-adv-x="460" 
d="M418 712q15 -2 22 -4l-14 -65q-12 2 -26 2q-42 0 -63 -32l-28 -130h80v-61h-93l-106 -501q-13 -62 -49.5 -91.5t-90.5 -29.5q-14 0 -29 2t-21 4l14 65q12 -2 25 -2q43 0 63 32l111 521h-73v61h86l24 110q13 62 49 91.5t90 29.5q14 0 29 -2z" />
    <glyph glyph-name="sterling" unicode="&#xa3;" horiz-adv-x="649" 
d="M571 76v-76h-466v76q23 2 44 24.5t28 51.5v141h-92v60h92v143q0 59 24.5 103.5t68 69t99.5 24.5h6q67 0 116.5 -32t77.5 -83l-59 -41q-55 88 -135 88h-4q-47 0 -76.5 -27t-35.5 -68v-177h180v-60h-180v-94q0 -75 -57 -123h369z" />
    <glyph glyph-name="yen" unicode="&#xa5;" horiz-adv-x="637" 
d="M379 341h136v-50h-151v-95h151v-49h-151v-147h-87v147h-154v49h154v95h-154v50h136l-208 339h96l175 -291l173 291h92z" />
    <glyph glyph-name="plus" unicode="+" horiz-adv-x="634" 
d="M557 289h-205v-208h-70v208h-206v66h206v208h70v-208h205v-66z" />
    <glyph glyph-name="minus" unicode="&#x2212;" horiz-adv-x="634" 
d="M76 355h481v-66h-481v66z" />
    <glyph glyph-name="multiply" unicode="&#xd7;" horiz-adv-x="585" 
d="M341 321l167 -167l-48 -47l-166 167l-168 -168l-50 49l168 168l-167 167l47 47l167 -167l168 168l50 -49z" />
    <glyph glyph-name="divide" unicode="&#xf7;" horiz-adv-x="634" 
d="M76 355h481v-66h-481v66zM263 545h108v-101h-108v101zM263 198h108v-101h-108v101z" />
    <glyph glyph-name="equal" unicode="=" horiz-adv-x="634" 
d="M76 256h481v-66h-481v66zM76 454h481v-66h-481v66z" />
    <glyph glyph-name="notequal" unicode="&#x2260;" horiz-adv-x="634" 
d="M378 387l-56 -130h235v-67h-263l-46 -109h-66l46 109h-152v67h180l56 130h-236v67h264l46 109h66l-46 -109h151v-67h-179z" />
    <glyph glyph-name="greater" unicode="&#x3e;" horiz-adv-x="634" 
d="M557 324v-4l-481 -196v66l339 132l-339 132v66z" />
    <glyph glyph-name="less" unicode="&#x3c;" horiz-adv-x="634" 
d="M557 454l-338 -132l338 -132v-66l-481 196v4l481 196v-66z" />
    <glyph glyph-name="greaterequal" unicode="&#x2265;" horiz-adv-x="634" 
d="M557 332v-4l-481 -185v67l320 120l-320 120v67zM76 67h481v-67h-481v67z" />
    <glyph glyph-name="lessequal" unicode="&#x2264;" horiz-adv-x="600" 
d="M550 450l-320 -120l320 -120v-67l-481 185v4l481 185v-67zM69 67h481v-67h-481v67z" />
    <glyph glyph-name="plusminus" unicode="&#xb1;" horiz-adv-x="634" 
d="M557 383v-67h-205v-180h-70v180h-206v67h206v179h70v-179h205zM76 67h481v-67h-481v67z" />
    <glyph glyph-name="approxequal" unicode="&#x2248;" horiz-adv-x="634" 
d="M393.5 352.5q-30.5 6.5 -74.5 19.5q-47 13 -76 19.5t-57 6.5q-68 0 -110 -43v72q18 17 46 27t64 10q28 0 57 -6.5t76 -19.5q41 -13 72.5 -20t59.5 -7q63 0 106 44v-73q-38 -36 -106 -36q-27 0 -57.5 6.5zM393.5 173.5q-30.5 6.5 -74.5 19.5q-47 13 -76 19.5t-57 6.5
q-67 0 -110 -43v72q18 16 46.5 26.5t63.5 10.5q28 0 57 -6.5t76 -19.5q41 -13 72.5 -20t59.5 -7q63 0 106 43v-71q-37 -37 -106 -37q-27 0 -57.5 6.5z" />
    <glyph glyph-name="logicalnot" unicode="&#xac;" horiz-adv-x="634" 
d="M557 355v-245h-69v179h-412v66h481z" />
    <glyph glyph-name="asciitilde" unicode="~" horiz-adv-x="633" 
d="M111.5 370q32.5 41 94.5 41q28 0 53.5 -10t66.5 -32q33 -18 55.5 -27.5t43.5 -9.5q63 0 70 80h62q-3 -63 -35.5 -104t-94.5 -41q-28 0 -53.5 10t-66.5 32q-33 18 -55.5 27.5t-43.5 9.5q-63 0 -70 -80h-62q3 63 35.5 104z" />
    <glyph glyph-name="asciicircum" unicode="^" horiz-adv-x="613" 
d="M448 284l-143 274l-143 -274h-64l206 396h4l206 -396h-66z" />
    <glyph glyph-name="infinity" unicode="&#x221e;" horiz-adv-x="788" 
d="M127 154.5q-36 19.5 -57.5 54t-21.5 75.5q0 43 21.5 78t58.5 54.5t83 19.5q52 0 97.5 -29.5t90.5 -82.5q50 54 91 83t98 29q67 0 109.5 -41t42.5 -106v-1q0 -45 -22.5 -80t-59 -54t-77.5 -19q-46 0 -89.5 26.5t-96.5 85.5q-46 -53 -90.5 -82.5t-100.5 -29.5
q-41 0 -77 19.5zM287.5 212.5q34.5 25.5 75.5 69.5q-42 51 -76.5 77.5t-81.5 26.5q-45 0 -73 -30t-28 -73q0 -41 30.5 -68.5t76.5 -27.5q42 0 76.5 25.5zM656 216.5q28 29.5 28 67.5q0 47 -28.5 74.5t-72.5 27.5q-37 0 -69.5 -22t-83.5 -77q51 -55 84 -77.5t70 -22.5
q44 0 72 29.5z" />
    <glyph glyph-name="integral" unicode="&#x222b;" horiz-adv-x="460" 
d="M21 -198q-15 2 -21 4l14 65q12 -2 25 -2q43 0 63 32l148 692q13 62 49 91.5t90 29.5q14 0 29 -2t22 -4l-14 -65q-12 2 -26 2q-42 0 -63 -32l-147 -692q-13 -62 -49.5 -91.5t-90.5 -29.5q-14 0 -29 2z" />
    <glyph glyph-name="product" unicode="&#x220f;" horiz-adv-x="690" 
d="M592 -100h-87v703h-320v-703h-87v780h494v-780z" />
    <glyph glyph-name="summation" unicode="&#x2211;" horiz-adv-x="567" 
d="M18 -98l250 388l-250 388v2h508v-77h-365l203 -313l-203 -313h365v-77h-508v2z" />
    <glyph glyph-name="radical" unicode="&#x221a;" horiz-adv-x="597" 
d="M577 680l-323 -705h-2l-234 508h88l150 -334l238 531h83z" />
    <glyph glyph-name="uni00B5" unicode="&#xb5;" horiz-adv-x="558" 
d="M469 483v-483h-78v52q-23 -30 -56 -47t-69 -17h-2q-53 0 -92 34v-222h-83v683h83v-356q10 -28 36 -48t64 -20h2q32 0 63 17.5t49 47.5v359h83z" />
    <glyph glyph-name="partialdiff" unicode="&#x2202;" horiz-adv-x="551" 
d="M393 548.5q53 -75.5 81.5 -150.5t28.5 -131v-58q0 -64 -30.5 -114.5t-82 -79.5t-112.5 -29h-5q-61 0 -112.5 29t-82 79.5t-30.5 114.5v6q0 63 29.5 113.5t79.5 79t109 28.5h5q35 0 69.5 -13.5t58.5 -38.5q-60 153 -218 296h91q68 -56 121 -131.5zM417 212q0 35 -2 53
q-9 40 -46 71t-91 31h-5q-54 0 -90.5 -31t-46.5 -71q-2 -18 -2 -53t2 -53q10 -40 46.5 -71t90.5 -31h5q54 0 91 31.5t46 70.5q2 18 2 53z" />
    <glyph glyph-name="percent" unicode="%" horiz-adv-x="818" 
d="M140.5 420q-34.5 20 -54.5 53.5t-20 73.5t20 73.5t54.5 53.5t75.5 20t76 -20t55 -53.5t20 -73.5t-20 -73.5t-55 -53.5t-76 -20t-75.5 20zM623 680h75l-506 -680h-75zM269.5 473q22.5 17 28.5 40q2 22 2 34q0 14 -2 34q-6 23 -28.5 40t-53.5 17q-30 0 -53 -17t-28 -40
q-1 -10 -1 -34q0 -23 1 -34q5 -23 28 -40t53 -17q31 0 53.5 17zM525.5 9q-34.5 20 -54.5 53.5t-20 73.5t20 73.5t54.5 53.5t75.5 20t76 -20t55 -53.5t20 -73.5t-20 -73.5t-55 -53.5t-76 -20t-75.5 20zM654.5 62q22.5 17 28.5 40q2 22 2 34q0 14 -2 34q-6 23 -28.5 40
t-53.5 17q-30 0 -53 -17t-28 -40q-1 -10 -1 -34q0 -23 1 -34q5 -23 28 -40t53 -17q31 0 53.5 17z" />
    <glyph glyph-name="perthousand" unicode="&#x2030;" horiz-adv-x="1169" 
d="M140.5 420q-34.5 20 -54.5 53.5t-20 73.5t20 73.5t54.5 53.5t75.5 20t76 -20t55 -53.5t20 -73.5t-20 -73.5t-55 -53.5t-76 -20t-75.5 20zM623 680h75l-506 -680h-75zM269.5 473q22.5 17 28.5 40q2 22 2 34q0 14 -2 34q-6 23 -28.5 40t-53.5 17q-30 0 -53 -17t-28 -40
q-1 -10 -1 -34q0 -23 1 -34q5 -23 28 -40t53 -17q31 0 53.5 17zM525.5 9q-34.5 20 -54.5 53.5t-20 73.5t20 73.5t54.5 53.5t75.5 20t76 -20t55 -53.5t20 -73.5t-20 -73.5t-55 -53.5t-76 -20t-75.5 20zM877.5 9q-34.5 20 -54.5 53.5t-20 73.5t20 73.5t54.5 53.5t75.5 20
t75.5 -20t54.5 -53.5t20 -73.5t-20 -73.5t-54.5 -53.5t-75.5 -20t-75.5 20zM654.5 62q22.5 17 28.5 40q2 22 2 34q0 14 -2 34q-6 23 -28.5 40t-53.5 17q-30 0 -53 -17t-28 -40q-1 -10 -1 -34q0 -23 1 -34q5 -23 28 -40t53 -17q31 0 53.5 17zM1006 62q23 17 28 40q2 22 2 34
q0 14 -2 34q-5 23 -28 40t-53 17q-31 0 -53.5 -17t-28.5 -40q-1 -10 -1 -34q0 -23 1 -34q6 -23 28.5 -40t53.5 -17q30 0 53 17z" />
    <glyph glyph-name="uni25CF" unicode="&#x25cf;" horiz-adv-x="806" 
d="M226 34.5q-81 47.5 -128.5 128.5t-47.5 177t47.5 177t128.5 128.5t177 47.5t177 -47.5t128.5 -128.5t47.5 -177t-47.5 -177t-128.5 -128.5t-177 -47.5t-177 47.5z" />
    <glyph glyph-name="circle" unicode="&#x25cb;" horiz-adv-x="806" 
d="M226 34.5q-81 47.5 -128.5 128.5t-47.5 177t47.5 177t128.5 128.5t177 47.5t177 -47.5t128.5 -128.5t47.5 -177t-47.5 -177t-128.5 -128.5t-177 -47.5t-177 47.5zM544.5 96q64.5 38 102.5 102.5t38 141.5t-38 141.5t-102.5 102.5t-141.5 38t-141.5 -38t-102.5 -102.5
t-38 -141.5t38 -141.5t102.5 -102.5t141.5 -38t141.5 38z" />
    <glyph glyph-name="lozenge" unicode="&#x25ca;" horiz-adv-x="646" 
d="M58 340l202 340h127l201 -340l-201 -340h-127zM493 340l-169 288l-171 -288l171 -288z" />
    <glyph glyph-name="at" unicode="@" horiz-adv-x="889" 
d="M644 586q86 -41 136.5 -118.5t50.5 -182.5q0 -71 -25 -123.5t-66 -80.5t-88 -28q-44 0 -74 20t-38 55q-25 -39 -61.5 -57t-72.5 -18q-70 0 -111.5 45t-41.5 117q0 59 24.5 110.5t69 82t99.5 30.5q38 0 71.5 -17.5t47.5 -53.5l12 58h59l-46 -216q-4 -17 -4 -35
q0 -36 18 -55.5t51 -19.5q34 0 61 25t42.5 67.5t15.5 94.5q0 91 -43 157.5t-116 101t-161 34.5q-96 0 -172.5 -43.5t-120 -120.5t-43.5 -173t41 -168.5t114 -112t168 -39.5q39 0 77 7t65 20l15 -44q-61 -31 -158 -31q-110 0 -197 45t-136 128.5t-49 193.5t52 198t142.5 138
t201.5 50q104 0 190 -41zM479 130q29 25 44.5 66t15.5 85q0 52 -24 78.5t-65 26.5q-38 0 -67.5 -23t-46 -61.5t-16.5 -83.5q0 -51 23 -82t70 -31q37 0 66 25z" />
    <glyph glyph-name="ampersand" unicode="&#x26;" horiz-adv-x="650" 
d="M557 0l-78 82q-51 -47 -98 -71.5t-108 -24.5h-5q-56 0 -101.5 22t-71.5 58.5t-26 78.5v6q0 50 26 88.5t89 88.5l35 28l-31 32q-41 43 -57.5 78.5t-16.5 68.5v5q0 41 23 76t63.5 56t89.5 21h5q49 0 90 -21t64.5 -56t23.5 -76v-5q0 -33 -20 -68.5t-71 -77.5l-53 -43
l154 -164l68 68h96l-117 -118l124 -132h-97zM215.5 602q-28.5 -28 -27.5 -76q5 -22 19.5 -43.5t48.5 -58.5l26 -27l41 33q68 55 76 96q1 47 -29 75.5t-75 28.5h-4q-47 0 -75.5 -28zM354.5 73q36.5 20 77.5 59l-165 173l-24 -19q-46 -37 -67.5 -62.5t-28.5 -45.5
q-3 -34 13 -63t45.5 -45.5t66.5 -16.5h5q41 0 77.5 20z" />
    <glyph glyph-name="paragraph" unicode="&#xb6;" horiz-adv-x="668" 
d="M569 632h-54v-712h-60v712h-106v-712h-57v358h-39q-54 0 -102 24t-77.5 68.5t-29.5 103.5v10q0 59 29.5 103.5t77.5 68.5t102 24h316v-48z" />
    <glyph glyph-name="section" unicode="&#xa7;" horiz-adv-x="643" 
d="M487.5 357.5q23.5 -20.5 40.5 -49t17 -63.5v-2q0 -48 -35 -85t-89 -48q28 -24 43.5 -49.5t15.5 -57.5v-2q0 -54 -40.5 -90.5t-98.5 -36.5h-4q-49 0 -87 24.5t-60 60.5l57 39q20 -28 41 -43t48 -15h3q29 0 48 18.5t18 51.5q-8 23 -69 70l-121 84q-36 26 -59.5 46.5
t-40.5 49t-17 62.5v2q0 49 35.5 86t89.5 48q-27 23 -43 48.5t-16 58.5v2q0 54 40 90.5t98 36.5h4q49 0 87 -24.5t60 -60.5l-57 -39q-19 28 -40.5 43t-48.5 15h-3q-29 0 -47.5 -18.5t-17.5 -51.5q7 -25 68 -70l121 -84q36 -26 59.5 -46.5zM441 187q29 25 28 67q-7 24 -24 41
t-57 47l-93 64h-18q-45 0 -74.5 -25t-28.5 -68q7 -23 24.5 -40.5t57.5 -46.5l93 -64h17q46 0 75 25z" />
    <glyph glyph-name="copyright" unicode="&#xa9;" horiz-adv-x="803" 
d="M224 34q-82 48 -130 129.5t-48 176.5t48 176.5t130 129.5t178 48t177.5 -48t129.5 -129.5t48 -176.5t-48 -176.5t-129.5 -129.5t-177.5 -48t-178 48zM558.5 70q71.5 42 113.5 114t42 156t-42 156t-113.5 114t-156.5 42t-156.5 -42t-113.5 -114t-42 -156t42 -156
t113.5 -114t156.5 -42t156.5 42zM304.5 145.5q-48.5 25.5 -77 73.5t-28.5 113v15q0 66 28.5 114t77 73t109.5 25h5q65 0 108 -22v-57q-41 22 -106 22h-5q-55 0 -91.5 -27t-51.5 -65q-4 -18 -4 -70q0 -53 4 -71q15 -38 51.5 -65t91.5 -27h5q61 0 106 21v-56q-46 -22 -108 -22
h-5q-61 0 -109.5 25.5z" />
    <glyph glyph-name="registered" unicode="&#xae;" horiz-adv-x="513" 
d="M355.5 667.5q45.5 -26.5 72.5 -72t27 -99.5q0 -53 -27 -98.5t-72.5 -72t-99.5 -26.5t-99.5 26.5t-72 72t-26.5 98.5q0 54 26.5 99.5t72 72t99.5 26.5t99.5 -26.5zM338 353.5q37 22.5 59 60.5t22 82q0 45 -22 83t-59 60t-82 22q-44 0 -81.5 -22t-59.5 -60t-22 -83
q0 -44 22 -82t59.5 -60.5t81.5 -22.5q45 0 82 22.5zM323 499q-15 -16 -39 -20l64 -84h-43l-80 108v-108h-38v211h81q29 0 49.5 -17.5t20.5 -45.5v-3q0 -25 -15 -41zM269 506q13 0 22 8t9 23v4q0 15 -9 23t-22 8h-44v-66h44z" />
    <glyph glyph-name="trademark" unicode="&#x2122;" horiz-adv-x="835" 
d="M764 689v-381h-58v232l-126 -156h-1l-127 157v-233h-57v381h1l183 -219l183 219h2zM315 627h-108v-319h-60v319h-107v53h275v-53z" />
    <glyph glyph-name="degree" unicode="&#xb0;" horiz-adv-x="427" 
d="M144.5 473q-31.5 18 -50 49t-18.5 67q0 37 18.5 68t50 49t68.5 18t69 -18t50.5 -49t18.5 -68q0 -36 -18.5 -67t-50.5 -49t-69 -18t-68.5 18zM268 533q23 23 23 56q0 34 -23 57t-55 23t-54.5 -23t-22.5 -57q0 -33 22.5 -56t54.5 -23t55 23z" />
    <glyph glyph-name="bar" unicode="|" horiz-adv-x="361" 
d="M147 710h67v-790h-67v790z" />
    <glyph glyph-name="brokenbar" unicode="&#xa6;" horiz-adv-x="361" 
d="M147 710h67v-336h-67v336zM147 256h67v-336h-67v336z" />
    <glyph glyph-name="dagger" unicode="&#x2020;" horiz-adv-x="587" 
d="M488 419h-162v-499h-66v499h-162v64h162v227h66v-227h162v-64z" />
    <glyph glyph-name="daggerdbl" unicode="&#x2021;" horiz-adv-x="587" 
d="M326 419v-176h162v-64h-162v-259h-66v259h-162v64h162v176h-162v64h162v227h66v-227h162v-64h-162z" />
    <glyph glyph-name="uni0308" unicode="&#x308;" 
d="M-365 691h98v-100h-98v100zM-174 691h98v-100h-98v100z" />
    <glyph glyph-name="uni0308.case" 
d="M-381 850h98v-100h-98v100zM-174 850h98v-100h-98v100z" />
    <glyph glyph-name="uni0307" unicode="&#x307;" 
d="M-184 691h108v-101h-108v101z" />
    <glyph glyph-name="uni0307.case" 
d="M-185 850h109v-100h-109v100z" />
    <glyph glyph-name="gravecomb" unicode="&#x300;" 
d="M-252 710h92l83 -139h-81z" />
    <glyph glyph-name="gravecomb.case" 
d="M-247 862h94l77 -119h-82z" />
    <glyph glyph-name="acutecomb" unicode="&#x301;" 
d="M-169 710h92l-93 -139h-82z" />
    <glyph glyph-name="acutecomb.case" 
d="M-170 862h94l-89 -119h-82z" />
    <glyph glyph-name="uni030B" unicode="&#x30b;" 
d="M-326 710h81l-90 -139h-74zM-158 710h81l-90 -139h-74z" />
    <glyph glyph-name="uni030B.case" 
d="M-314 862h79l-85 -119h-71zM-156 862h80l-86 -119h-71z" />
    <glyph glyph-name="uni030C.alt" 
d="M-145 710h69l-42 -177h-64z" />
    <glyph glyph-name="uni0302" unicode="&#x302;" 
d="M-154 571l-69 95l-70 -95h-78l97 139h101l97 -139h-78z" />
    <glyph glyph-name="uni0302.case" 
d="M-153 743l-66 78l-65 -78h-78l93 119h101l92 -119h-77z" />
    <glyph glyph-name="uni030C" unicode="&#x30c;" 
d="M-76 710l-97 -139h-101l-97 139h78l70 -95l69 95h78z" />
    <glyph glyph-name="uni030C.case" 
d="M-76 862l-92 -119h-101l-93 119h78l65 -78l66 78h77z" />
    <glyph glyph-name="uni0306" unicode="&#x306;" 
d="M-299.5 602q-35.5 34 -36.5 83h54q2 -24 22 -42t54 -18t53.5 18t21.5 42h55q-2 -49 -37.5 -83t-92.5 -34q-58 0 -93.5 34z" />
    <glyph glyph-name="uni0306.case" 
d="M-294 762.5q-34 31.5 -36 78.5h52q2 -21 21.5 -38.5t53.5 -17.5t53.5 17.5t22.5 38.5h51q-2 -47 -36 -78.5t-91 -31.5t-91 31.5z" />
    <glyph glyph-name="uni030A" unicode="&#x30a;" 
d="M-243 587q-29 28 -29 67t29 66.5t69 27.5t69 -27.5t29 -66.5t-29 -67t-69 -28t-69 28zM-138.5 618.5q14.5 14.5 14.5 35.5q0 20 -14.5 34.5t-35.5 14.5t-35.5 -14.5t-14.5 -34.5q0 -21 14.5 -35.5t35.5 -14.5t35.5 14.5z" />
    <glyph glyph-name="uni030A.case" 
d="M-238.5 707.5q-28.5 27.5 -28.5 65.5t28 65t67 27t67.5 -27t28.5 -65t-28.5 -65.5t-67.5 -27.5q-38 0 -66.5 27.5zM-137.5 739q14.5 14 14.5 34q0 19 -14.5 33t-34.5 14t-34 -14t-14 -33q0 -20 14 -34t34 -14t34.5 14z" />
    <glyph glyph-name="tildecomb" unicode="&#x303;" 
d="M-357.5 666.5q20.5 29.5 60.5 29.5q31 0 69 -21l22 -12q27 -17 46 -17q14 0 21.5 13.5t9.5 36.5h53q-2 -52 -21.5 -81.5t-60.5 -29.5q-29 0 -70 23l-22 12q-14 8 -23 11.5t-19 3.5q-30 0 -35 -50h-53q2 52 22.5 81.5z" />
    <glyph glyph-name="tildecomb.case" 
d="M-360 820.5q20 27.5 60 27.5q29 0 71 -20l21 -11q34 -16 48 -16q27 0 30 47h53q-3 -105 -80 -105q-28 0 -72 22l-22 11q-23 13 -45 13q-29 0 -32 -46h-54q2 50 22 77.5z" />
    <glyph glyph-name="uni0304" unicode="&#x304;" 
d="M-324 668h248v-68h-248v68z" />
    <glyph glyph-name="uni0304.case" 
d="M-324 826h248v-66h-248v66z" />
    <glyph glyph-name="uni0312" unicode="&#x312;" 
d="M-154 700l77 65h1v-170h-78v105z" />
    <glyph glyph-name="uni0326" unicode="&#x326;" 
d="M-154 -66h78v-84l-77 -65h-1v149z" />
    <glyph glyph-name="uni0327" unicode="&#x327;" 
d="M-100.5 -91q24.5 -22 24.5 -57v-3q0 -43 -29.5 -65.5t-77.5 -22.5h-4q-23 0 -45.5 6t-37.5 17v45q32 -24 78 -24h4q22 0 36.5 11.5t14.5 28.5v10q0 17 -16.5 28t-41.5 11h-36l46 109h49l-28 -67q39 -5 63.5 -27z" />
    <glyph glyph-name="uni0328" unicode="&#x328;" 
d="M-196.5 -171q-24.5 21 -24.5 59v3q0 27 19 54.5t55 51.5l41 27l29 -24l-29 -21q-23 -16 -36 -36t-13 -40v-3q0 -18 12 -29.5t31 -11.5h4q11 0 31 4v-46q-22 -9 -46 -9h-4q-45 0 -69.5 21z" />
    <glyph glyph-name="acute" unicode="&#xb4;" horiz-adv-x="600" 
d="M295 710h92l-93 -139h-82z" />
    <glyph glyph-name="breve" unicode="&#x2d8;" horiz-adv-x="600" 
d="M209.5 602q-35.5 34 -36.5 83h54q2 -24 22 -42t54 -18t53.5 18t21.5 42h55q-2 -49 -37.5 -83t-92.5 -34q-58 0 -93.5 34z" />
    <glyph glyph-name="caron" unicode="&#x2c7;" horiz-adv-x="600" 
d="M448 710l-97 -139h-101l-97 139h78l70 -95l69 95h78z" />
    <glyph glyph-name="cedilla" unicode="&#xb8;" horiz-adv-x="600" 
d="M372.5 -91q24.5 -22 24.5 -57v-3q0 -43 -29.5 -65.5t-77.5 -22.5h-4q-23 0 -45.5 6t-37.5 17v45q32 -24 78 -24h4q22 0 36.5 11.5t14.5 28.5v10q0 17 -16.5 28t-41.5 11h-36l46 109h49l-28 -67q39 -5 63.5 -27z" />
    <glyph glyph-name="circumflex" unicode="&#x2c6;" horiz-adv-x="600" 
d="M370 571l-69 95l-70 -95h-78l97 139h101l97 -139h-78z" />
    <glyph glyph-name="dieresis" unicode="&#xa8;" horiz-adv-x="600" 
d="M156 691h98v-100h-98v100zM347 691h98v-100h-98v100z" />
    <glyph glyph-name="dotaccent" unicode="&#x2d9;" horiz-adv-x="600" 
d="M246 691h108v-101h-108v101z" />
    <glyph glyph-name="grave" unicode="`" horiz-adv-x="600" 
d="M212 710h92l83 -139h-81z" />
    <glyph glyph-name="hungarumlaut" unicode="&#x2dd;" horiz-adv-x="600" 
d="M227 710h81l-90 -139h-74zM395 710h81l-90 -139h-74z" />
    <glyph glyph-name="macron" unicode="&#xaf;" horiz-adv-x="600" 
d="M176 668h248v-68h-248v68z" />
    <glyph glyph-name="ogonek" unicode="&#x2db;" horiz-adv-x="600" 
d="M251.5 -171q-24.5 21 -24.5 59v3q0 27 19 54.5t55 51.5l41 27l29 -24l-29 -21q-23 -16 -36 -36t-13 -40v-3q0 -18 12 -29.5t31 -11.5h4q11 0 31 4v-46q-22 -9 -46 -9h-4q-45 0 -69.5 21z" />
    <glyph glyph-name="ring" unicode="&#x2da;" horiz-adv-x="600" 
d="M233 587q-29 28 -29 67t29 66.5t69 27.5t69 -27.5t29 -66.5t-29 -67t-69 -28t-69 28zM337.5 618.5q14.5 14.5 14.5 35.5q0 20 -14.5 34.5t-35.5 14.5t-35.5 -14.5t-14.5 -34.5q0 -21 14.5 -35.5t35.5 -14.5t35.5 14.5z" />
    <glyph glyph-name="tilde" unicode="&#x2dc;" horiz-adv-x="600" 
d="M171.5 666.5q20.5 29.5 60.5 29.5q31 0 69 -21l22 -12q27 -17 46 -17q14 0 21.5 13.5t9.5 36.5h53q-2 -52 -21.5 -81.5t-60.5 -29.5q-29 0 -70 23l-22 12q-14 8 -23 11.5t-19 3.5q-30 0 -35 -50h-53q2 52 22.5 81.5z" />
    <glyph glyph-name="uniE001" unicode="&#xe001;" horiz-adv-x="644" 
d="M521 94l-463 464v122h66v-94l462 -464v-122h-65v94z" />
    <glyph glyph-name="uniE002" horiz-adv-x="442" 
d="M278 235l-180 181v264h66v-235l180 -181v-264h-66v235z" />
    </font>
</defs>
</svg>
