<?xml version="1.0" standalone="no"?>
<!DOCTYPE svg PUBLIC "-//W3C//DTD SVG 1.1//EN" "http://www.w3.org/Graphics/SVG/1.1/DTD/svg11.dtd" >
<svg xmlns="http://www.w3.org/2000/svg" xmlns:xlink="http://www.w3.org/1999/xlink" version="1.1">
<metadata>
Created by FontForge 20170924 at Wed Jun 26 16:32:50 2019
 By www-data
Copyright (c) 2019 by Lynk &#38; Co. All rights reserved. Designed by Letters from Sweden and Geely Design.
</metadata>
<defs>
<font id="LynkcoType-Medium" horiz-adv-x="0" >
  <font-face 
    font-family="Lynkco Type Medium"
    font-weight="500"
    font-stretch="normal"
    units-per-em="1000"
    panose-1="0 0 6 0 0 0 0 0 0 0"
    ascent="750"
    descent="-250"
    x-height="489"
    cap-height="680"
    bbox="-453 -243 1168 902"
    underline-thickness="50"
    underline-position="-100"
    unicode-range="U+0020-FB02"
  />
<missing-glyph horiz-adv-x="450" 
d="M50 780h350v-880h-350v880zM370 -70v820h-290v-820h290z" />
    <glyph glyph-name="fi" unicode="fi" horiz-adv-x="633" 
d="M248.5 610.5q-14.5 -9.5 -18.5 -27.5v-94h78v-88h-78v-401h-116v401h-66v88h66v93q0 62 40 97.5t101 35.5q35 0 54 -7v-90q-12 2 -25 2q-21 0 -35.5 -9.5zM435 489h117v-489h-117v489zM425 701h137v-122h-137v122z" />
    <glyph glyph-name="fl" unicode="fl" horiz-adv-x="634" 
d="M248.5 610.5q-14.5 -9.5 -18.5 -27.5v-94h78v-88h-78v-401h-116v401h-66v88h66v93q0 62 40 97.5t101 35.5q35 0 54 -7v-90q-12 2 -25 2q-21 0 -35.5 -9.5zM435 710h117v-710h-117v710z" />
    <glyph glyph-name=".notdef" horiz-adv-x="450" 
d="M50 780h350v-880h-350v880zM370 -70v820h-290v-820h290z" />
    <glyph glyph-name="space" unicode=" " horiz-adv-x="203" 
 />
    <glyph glyph-name="A" unicode="A" horiz-adv-x="649" 
d="M455 143h-268l-61 -143h-117l314 705h2l314 -705h-123zM411 245l-90 211l-90 -211h180z" />
    <glyph glyph-name="Aacute" unicode="&#xc1;" horiz-adv-x="649" 
d="M455 143h-268l-61 -143h-117l314 705h2l314 -705h-123zM411 245l-90 211l-90 -211h180zM351 872h128l-95 -129h-113z" />
    <glyph glyph-name="Abreve" unicode="&#x102;" horiz-adv-x="649" 
d="M455 143h-268l-61 -143h-117l314 705h2l314 -705h-123zM411 245l-90 211l-90 -211h180zM222.5 766q-37.5 36 -39.5 88h67q3 -21 22.5 -38t52.5 -17t52 17t22 38h67q-2 -52 -39.5 -88t-101.5 -36q-65 0 -102.5 36z" />
    <glyph glyph-name="Acircumflex" unicode="&#xc2;" horiz-adv-x="649" 
d="M455 143h-268l-61 -143h-117l314 705h2l314 -705h-123zM411 245l-90 211l-90 -211h180zM385 743l-61 76l-62 -76h-106l98 129h140l98 -129h-107z" />
    <glyph glyph-name="Adieresis" unicode="&#xc4;" horiz-adv-x="649" 
d="M455 143h-268l-61 -143h-117l314 705h2l314 -705h-123zM411 245l-90 211l-90 -211h180zM149 866h124v-119h-124v119zM375 866h124v-119h-124v119z" />
    <glyph glyph-name="Agrave" unicode="&#xc0;" horiz-adv-x="649" 
d="M455 143h-268l-61 -143h-117l314 705h2l314 -705h-123zM411 245l-90 211l-90 -211h180zM169 872h128l80 -129h-113z" />
    <glyph glyph-name="Amacron" unicode="&#x100;" horiz-adv-x="649" 
d="M455 143h-268l-61 -143h-117l314 705h2l314 -705h-123zM411 245l-90 211l-90 -211h180zM187 846h274v-89h-274v89z" />
    <glyph glyph-name="Aogonek" unicode="&#x104;" horiz-adv-x="649" 
d="M610 -133q14 0 29 3v-58q-23 -12 -56 -12h-4q-50 0 -76 22.5t-26 63.5v3q0 27 20 57t56 51l5 3h-42l-61 143h-268l-61 -143h-117l314 705h2l314 -705l-26 -18q-49 -35 -49 -74v-2q0 -17 12 -28t31 -11h3zM411 245l-90 211l-90 -211h180z" />
    <glyph glyph-name="Aring" unicode="&#xc5;" horiz-adv-x="649" 
d="M455 143h-268l-61 -143h-117l302 678q-40 5 -67 34.5t-27 68.5q0 43 32 73.5t76 30.5t75.5 -30.5t31.5 -73.5q0 -39 -27.5 -68.5t-67.5 -34.5l302 -678h-123zM290.5 747q14.5 -14 34.5 -14t34 14.5t14 33.5q0 20 -14 34t-34 14t-34.5 -14t-14.5 -34t14.5 -34zM411 245
l-90 211l-90 -211h180z" />
    <glyph glyph-name="Atilde" unicode="&#xc3;" horiz-adv-x="649" 
d="M455 143h-268l-61 -143h-117l314 705h2l314 -705h-123zM411 245l-90 211l-90 -211h180zM250 866q33 0 75 -20l20 -11q13 -6 25.5 -10.5t21.5 -4.5q15 0 21.5 11.5t8.5 34.5h72q-2 -60 -25 -91t-70 -31q-34 0 -76 22l-21 11q-24 13 -44 13q-15 0 -23 -12t-9 -34h-73
q3 122 97 122z" />
    <glyph glyph-name="AE" unicode="&#xc6;" horiz-adv-x="898" 
d="M833 107v-107h-398v205h-201l-109 -205h-125l367 680h461v-107h-272v-166h242v-107h-242v-193h277zM435 307v274l-146 -274h146z" />
    <glyph glyph-name="B" unicode="B" horiz-adv-x="605" 
d="M525.5 298q32.5 -41 32.5 -99v-10q0 -89 -60.5 -139t-157.5 -50h-249v680h233q57 0 103 -21.5t72.5 -61t26.5 -91.5v-10q0 -44 -23.5 -79.5t-63.5 -57.5q54 -20 86.5 -61zM210 583v-182h107q33 0 56.5 15.5t31.5 38.5q2 12 2 37q0 27 -2 37q-8 23 -31.5 38.5t-56.5 15.5
h-107zM435 207q0 29 -2 41q-9 26 -37 42.5t-66 16.5h-120v-207h119q39 0 67 17.5t37 48.5q2 10 2 41z" />
    <glyph glyph-name="C" unicode="C" horiz-adv-x="613" 
d="M205.5 25q-70.5 40 -112 116t-41.5 179v40q0 103 41.5 179t112 116t154.5 40h7q54 0 102.5 -17.5t85.5 -45.5v-120q-90 76 -179 76h-8q-47 0 -86 -18.5t-64 -47.5t-34 -59q-3 -31 -3 -123q0 -90 3 -123q9 -30 34 -59t63.5 -47.5t86.5 -18.5h8q48 0 91.5 20.5t87.5 55.5
v-120q-37 -28 -85.5 -45.5t-102.5 -17.5h-7q-84 0 -154.5 40z" />
    <glyph glyph-name="Cacute" unicode="&#x106;" horiz-adv-x="613" 
d="M205.5 25q-70.5 40 -112 116t-41.5 179v40q0 103 41.5 179t112 116t154.5 40h7q54 0 102.5 -17.5t85.5 -45.5v-120q-90 76 -179 76h-8q-47 0 -86 -18.5t-64 -47.5t-34 -59q-3 -31 -3 -123q0 -90 3 -123q9 -30 34 -59t63.5 -47.5t86.5 -18.5h8q48 0 91.5 20.5t87.5 55.5
v-120q-37 -28 -85.5 -45.5t-102.5 -17.5h-7q-84 0 -154.5 40zM392 869h128l-95 -129h-113z" />
    <glyph glyph-name="Ccaron" unicode="&#x10c;" horiz-adv-x="613" 
d="M205.5 25q-70.5 40 -112 116t-41.5 179v40q0 103 41.5 179t112 116t154.5 40h7q54 0 102.5 -17.5t85.5 -45.5v-120q-90 76 -179 76h-8q-47 0 -86 -18.5t-64 -47.5t-34 -59q-3 -31 -3 -123q0 -90 3 -123q9 -30 34 -59t63.5 -47.5t86.5 -18.5h8q48 0 91.5 20.5t87.5 55.5
v-120q-37 -28 -85.5 -45.5t-102.5 -17.5h-7q-84 0 -154.5 40zM533 869l-98 -129h-140l-98 129h106l62 -76l61 76h107z" />
    <glyph glyph-name="Ccedilla" unicode="&#xc7;" horiz-adv-x="613" 
d="M282 569.5q-39 -18.5 -64 -47.5t-34 -59q-3 -31 -3 -123q0 -90 3 -123q9 -30 34 -59t63.5 -47.5t86.5 -18.5h8q48 0 91.5 20.5t87.5 55.5v-120q-37 -28 -85 -45.5t-101 -17.5l-19 -47q38 -6 60.5 -28.5t22.5 -57.5v-3q0 -44 -30.5 -68t-83.5 -24h-4q-22 0 -44.5 6
t-38.5 17v54q31 -22 74 -22h4q20 0 32 10t12 25v8q0 15 -14 24.5t-37 9.5h-36l41 100q-72 12 -130.5 54.5t-92 113.5t-33.5 163v40q0 103 41.5 179t112 116t154.5 40h7q54 0 102.5 -17.5t85.5 -45.5v-120q-90 76 -179 76h-8q-47 0 -86 -18.5z" />
    <glyph glyph-name="Cdotaccent" unicode="&#x10a;" horiz-adv-x="613" 
d="M205.5 25q-70.5 40 -112 116t-41.5 179v40q0 103 41.5 179t112 116t154.5 40h7q54 0 102.5 -17.5t85.5 -45.5v-120q-90 76 -179 76h-8q-47 0 -86 -18.5t-64 -47.5t-34 -59q-3 -31 -3 -123q0 -90 3 -123q9 -30 34 -59t63.5 -47.5t86.5 -18.5h8q48 0 91.5 20.5t87.5 55.5
v-120q-37 -28 -85.5 -45.5t-102.5 -17.5h-7q-84 0 -154.5 40zM296 863h138v-119h-138v119z" />
    <glyph glyph-name="D" unicode="D" horiz-adv-x="679" 
d="M484.5 641q65.5 -39 104 -111.5t38.5 -169.5v-40q0 -97 -38.5 -169.5t-104 -111.5t-144.5 -39h-249v680h249q79 0 144.5 -39zM498 340q0 89 -4 116q-7 28 -28 55t-54 44.5t-74 17.5h-125v-466h125q41 0 74 17.5t54 44.5t28 55q4 27 4 116z" />
    <glyph glyph-name="Eth" unicode="&#xd0;" horiz-adv-x="709" 
d="M514.5 641q65.5 -39 104 -111.5t38.5 -169.5v-40q0 -97 -38.5 -169.5t-104 -111.5t-144.5 -39h-249v296h-72v88h72v296h249q79 0 144.5 -39zM528 340q0 89 -4 116q-7 28 -28 55t-54 44.5t-74 17.5h-125v-189h138v-88h-138v-189h125q41 0 74 17.5t54 44.5t28 55
q4 27 4 116z" />
    <glyph glyph-name="Dcaron" unicode="&#x10e;" horiz-adv-x="679" 
d="M484.5 641q65.5 -39 104 -111.5t38.5 -169.5v-40q0 -97 -38.5 -169.5t-104 -111.5t-144.5 -39h-249v680h249q79 0 144.5 -39zM498 340q0 89 -4 116q-7 28 -28 55t-54 44.5t-74 17.5h-125v-466h125q41 0 74 17.5t54 44.5t28 55q4 27 4 116zM495 872l-98 -129h-140l-98 129
h106l62 -76l61 76h107z" />
    <glyph glyph-name="Dcroat" unicode="&#x110;" horiz-adv-x="709" 
d="M514.5 641q65.5 -39 104 -111.5t38.5 -169.5v-40q0 -97 -38.5 -169.5t-104 -111.5t-144.5 -39h-249v296h-72v88h72v296h249q79 0 144.5 -39zM528 340q0 89 -4 116q-7 28 -28 55t-54 44.5t-74 17.5h-125v-189h138v-88h-138v-189h125q41 0 74 17.5t54 44.5t28 55
q4 27 4 116z" />
    <glyph glyph-name="E" unicode="E" horiz-adv-x="554" 
d="M489 107v-107h-398v680h393v-107h-272v-166h242v-107h-242v-193h277z" />
    <glyph glyph-name="Eacute" unicode="&#xc9;" horiz-adv-x="554" 
d="M489 107v-107h-398v680h393v-107h-272v-166h242v-107h-242v-193h277zM315 872h128l-95 -129h-113z" />
    <glyph glyph-name="Ecaron" unicode="&#x11a;" horiz-adv-x="554" 
d="M489 107v-107h-398v680h393v-107h-272v-166h242v-107h-242v-193h277zM456 872l-98 -129h-140l-98 129h106l62 -76l61 76h107z" />
    <glyph glyph-name="Ecircumflex" unicode="&#xca;" horiz-adv-x="554" 
d="M489 107v-107h-398v680h393v-107h-272v-166h242v-107h-242v-193h277zM349 743l-61 76l-62 -76h-106l98 129h140l98 -129h-107z" />
    <glyph glyph-name="Edieresis" unicode="&#xcb;" horiz-adv-x="554" 
d="M489 107v-107h-398v680h393v-107h-272v-166h242v-107h-242v-193h277zM114 866h124v-119h-124v119zM340 866h124v-119h-124v119z" />
    <glyph glyph-name="Edotaccent" unicode="&#x116;" horiz-adv-x="554" 
d="M489 107v-107h-398v680h393v-107h-272v-166h242v-107h-242v-193h277zM219 866h138v-119h-138v119z" />
    <glyph glyph-name="Egrave" unicode="&#xc8;" horiz-adv-x="554" 
d="M489 107v-107h-398v680h393v-107h-272v-166h242v-107h-242v-193h277zM133 872h128l80 -129h-113z" />
    <glyph glyph-name="Emacron" unicode="&#x112;" horiz-adv-x="554" 
d="M489 107v-107h-398v680h393v-107h-272v-166h242v-107h-242v-193h277zM152 846h274v-89h-274v89z" />
    <glyph glyph-name="Eogonek" unicode="&#x118;" horiz-adv-x="554" 
d="M414 -92v-2q0 -17 12 -28t31 -11h3q14 0 29 3v-58q-23 -12 -56 -12h-4q-50 0 -76 22.5t-26 63.5v3q0 27 20 57t56 51l5 3h-317v680h393v-107h-272v-166h242v-107h-242v-193h277v-107l-26 -18q-49 -35 -49 -74z" />
    <glyph glyph-name="F" unicode="F" horiz-adv-x="537" 
d="M212 573v-177h245v-107h-245v-289h-121v680h393v-107h-272z" />
    <glyph glyph-name="G" unicode="G" horiz-adv-x="695" 
d="M642 347v-84q0 -79 -35.5 -142.5t-98 -99.5t-140.5 -36h-17q-83 0 -151 40.5t-108 116.5t-40 178v40q0 102 40 178t108 116.5t151 40.5h8q95 0 169.5 -53.5t106.5 -147.5h-123q-21 43 -62 68.5t-91 25.5h-8q-43 0 -78.5 -18.5t-58 -47.5t-30.5 -59q-3 -31 -3 -123t3 -124
q8 -30 30.5 -59t58 -48t78.5 -19h17q44 0 78.5 19.5t54.5 48t24 54.5v34h-162v101h279z" />
    <glyph glyph-name="Gbreve" unicode="&#x11e;" horiz-adv-x="695" 
d="M642 347v-84q0 -79 -35.5 -142.5t-98 -99.5t-140.5 -36h-17q-83 0 -151 40.5t-108 116.5t-40 178v40q0 102 40 178t108 116.5t151 40.5h8q95 0 169.5 -53.5t106.5 -147.5h-123q-21 43 -62 68.5t-91 25.5h-8q-43 0 -78.5 -18.5t-58 -47.5t-30.5 -59q-3 -31 -3 -123t3 -124
q8 -30 30.5 -59t58 -48t78.5 -19h17q44 0 78.5 19.5t54.5 48t24 54.5v34h-162v101h279zM256.5 766q-37.5 36 -39.5 88h67q3 -21 22.5 -38t52.5 -17t52 17t22 38h67q-2 -52 -39.5 -88t-101.5 -36q-65 0 -102.5 36z" />
    <glyph glyph-name="uni0122" unicode="&#x122;" horiz-adv-x="695" 
d="M642 347v-84q0 -79 -35.5 -142.5t-98 -99.5t-140.5 -36h-17q-83 0 -151 40.5t-108 116.5t-40 178v40q0 102 40 178t108 116.5t151 40.5h8q95 0 169.5 -53.5t106.5 -147.5h-123q-21 43 -62 68.5t-91 25.5h-8q-43 0 -78.5 -18.5t-58 -47.5t-30.5 -59q-3 -31 -3 -123t3 -124
q8 -30 30.5 -59t58 -48t78.5 -19h17q44 0 78.5 19.5t54.5 48t24 54.5v34h-162v101h279zM305 -62h106v-89l-105 -85h-1v174z" />
    <glyph glyph-name="Gdotaccent" unicode="&#x120;" horiz-adv-x="695" 
d="M642 347v-84q0 -79 -35.5 -142.5t-98 -99.5t-140.5 -36h-17q-83 0 -151 40.5t-108 116.5t-40 178v40q0 102 40 178t108 116.5t151 40.5h8q95 0 169.5 -53.5t106.5 -147.5h-123q-21 43 -62 68.5t-91 25.5h-8q-43 0 -78.5 -18.5t-58 -47.5t-30.5 -59q-3 -31 -3 -123t3 -124
q8 -30 30.5 -59t58 -48t78.5 -19h17q44 0 78.5 19.5t54.5 48t24 54.5v34h-162v101h279zM289 866h138v-119h-138v119z" />
    <glyph glyph-name="H" unicode="H" horiz-adv-x="706" 
d="M615 680v-680h-123v300h-279v-300h-122v680h122v-273h279v273h123z" />
    <glyph glyph-name="Hbar" unicode="&#x126;" horiz-adv-x="706" 
d="M660 500h-45v-500h-123v300h-279v-300h-122v500h-47v75h47v105h122v-105h279v105h123v-105h45v-75zM492 500h-279v-93h279v93z" />
    <glyph glyph-name="I" unicode="I" horiz-adv-x="303" 
d="M91 680h121v-680h-121v680z" />
    <glyph glyph-name="Iacute" unicode="&#xcd;" horiz-adv-x="303" 
d="M91 680h121v-680h-121v680zM179 872h128l-95 -129h-113z" />
    <glyph glyph-name="Icircumflex" unicode="&#xce;" horiz-adv-x="303" 
d="M91 680h121v-680h-121v680zM213 743l-61 76l-62 -76h-106l98 129h140l98 -129h-107z" />
    <glyph glyph-name="Idieresis" unicode="&#xcf;" horiz-adv-x="303" 
d="M91 680h121v-680h-121v680zM-23 866h124v-119h-124v119zM203 866h124v-119h-124v119z" />
    <glyph glyph-name="Idotaccent" unicode="&#x130;" horiz-adv-x="303" 
d="M91 680h121v-680h-121v680zM83 866h138v-119h-138v119z" />
    <glyph glyph-name="Igrave" unicode="&#xcc;" horiz-adv-x="303" 
d="M91 680h121v-680h-121v680zM-3 872h128l80 -129h-113z" />
    <glyph glyph-name="Imacron" unicode="&#x12a;" horiz-adv-x="303" 
d="M91 680h121v-680h-121v680zM15 846h274v-89h-274v89z" />
    <glyph glyph-name="Iogonek" unicode="&#x12e;" horiz-adv-x="303" 
d="M137 -92v-2q0 -17 12 -28t31 -11h3q14 0 29 3v-58q-22 -12 -56 -12h-4q-50 0 -76 22.5t-26 63.5v3q0 27 20 57t56 51l5 3h-40v680h121v-680l-26 -18q-49 -35 -49 -74z" />
    <glyph glyph-name="J" unicode="J" horiz-adv-x="423" 
d="M76.5 -10q-29.5 5 -49.5 13v102q39 -13 84 -13h7q41 0 65.5 17.5t33.5 45.5v525h122v-505q0 -84 -53.5 -137t-146.5 -53h-7q-26 0 -55.5 5z" />
    <glyph glyph-name="K" unicode="K" horiz-adv-x="646" 
d="M493 0l-280 352v-352h-122v680h122v-326l265 326h141l-269 -321l290 -359h-147z" />
    <glyph glyph-name="uni0136" unicode="&#x136;" horiz-adv-x="646" 
d="M493 0l-280 352v-352h-122v680h122v-326l265 326h141l-269 -321l290 -359h-147zM270 -62h106v-89l-105 -85h-1v174z" />
    <glyph glyph-name="L" unicode="L" horiz-adv-x="510" 
d="M471 107v-107h-380v680h122v-573h258z" />
    <glyph glyph-name="Lacute" unicode="&#x139;" horiz-adv-x="510" 
d="M471 107v-107h-380v680h122v-573h258zM177 872h128l-95 -129h-113z" />
    <glyph glyph-name="Lcaron" unicode="&#x13d;" horiz-adv-x="510" 
d="M471 107v-107h-380v680h122v-573h258zM298 680h93l-45 -193h-86z" />
    <glyph glyph-name="uni013B" unicode="&#x13b;" horiz-adv-x="510" 
d="M471 107v-107h-380v680h122v-573h258zM228 -62h106v-89l-105 -85h-1v174z" />
    <glyph glyph-name="Lslash" unicode="&#x141;" horiz-adv-x="510" 
d="M471 107v-107h-380v243l-68 -41v85l68 41v352h122v-278l125 76v-85l-125 -76v-210h258z" />
    <glyph glyph-name="M" unicode="M" horiz-adv-x="811" 
d="M720 697v-697h-117v410l-196 -223h-2l-197 223v-410h-117v697h2l313 -352l312 352h2z" />
    <glyph glyph-name="N" unicode="N" horiz-adv-x="720" 
d="M629 680v-697h-2l-420 436v-419h-116v697h2l420 -437v420h116z" />
    <glyph glyph-name="Nacute" unicode="&#x143;" horiz-adv-x="720" 
d="M629 680v-697h-2l-420 436v-419h-116v697h2l420 -437v420h116zM387 872h128l-95 -129h-113z" />
    <glyph glyph-name="Ncaron" unicode="&#x147;" horiz-adv-x="720" 
d="M629 680v-697h-2l-420 436v-419h-116v697h2l420 -437v420h116zM528 872l-98 -129h-140l-98 129h106l62 -76l61 76h107z" />
    <glyph glyph-name="uni0145" unicode="&#x145;" horiz-adv-x="720" 
d="M629 680v-697h-2l-420 436v-419h-116v697h2l420 -437v420h116zM306 -62h106v-89l-105 -85h-1v174z" />
    <glyph glyph-name="Eng" unicode="&#x14a;" horiz-adv-x="720" 
d="M366.5 -211q-29.5 5 -49.5 13v103q42 -14 84 -14h7q47 0 73 26t26 67v121l-300 315v-420h-116v697h2l420 -437v420h116v-703q0 -56 -24 -99.5t-69 -68.5t-107 -25h-7q-26 0 -55.5 5z" />
    <glyph glyph-name="Ntilde" unicode="&#xd1;" horiz-adv-x="720" 
d="M629 680v-697h-2l-420 436v-419h-116v697h2l420 -437v420h116zM286 866q33 0 75 -20l20 -11q13 -6 25.5 -10.5t21.5 -4.5q15 0 21.5 11.5t8.5 34.5h72q-2 -60 -25 -91t-70 -31q-34 0 -76 22l-21 11q-24 13 -44 13q-15 0 -23 -12t-9 -34h-73q3 122 97 122z" />
    <glyph glyph-name="O" unicode="O" horiz-adv-x="709" 
d="M200 25.5q-68 40.5 -108 116.5t-40 178v40q0 102 40 178t108 116.5t151 40.5h8q82 0 150 -40.5t108 -116.5t40 -178v-40q0 -102 -40 -178t-108 -116.5t-150 -40.5h-8q-83 0 -151 40.5zM359 92q43 0 78 18.5t57.5 47.5t30.5 59q4 29 4 123q0 95 -4 123q-8 30 -30.5 59
t-57.5 47.5t-78 18.5h-8q-43 0 -78.5 -18.5t-58 -47.5t-30.5 -59q-3 -31 -3 -123q0 -90 3 -123q8 -30 30.5 -59t58 -47.5t78.5 -18.5h8z" />
    <glyph glyph-name="Oacute" unicode="&#xd3;" horiz-adv-x="709" 
d="M200 25.5q-68 40.5 -108 116.5t-40 178v40q0 102 40 178t108 116.5t151 40.5h8q82 0 150 -40.5t108 -116.5t40 -178v-40q0 -102 -40 -178t-108 -116.5t-150 -40.5h-8q-83 0 -151 40.5zM359 92q43 0 78 18.5t57.5 47.5t30.5 59q4 29 4 123q0 95 -4 123q-8 30 -30.5 59
t-57.5 47.5t-78 18.5h-8q-43 0 -78.5 -18.5t-58 -47.5t-30.5 -59q-3 -31 -3 -123q0 -90 3 -123q8 -30 30.5 -59t58 -47.5t78.5 -18.5h8zM381 872h128l-95 -129h-113z" />
    <glyph glyph-name="Ocircumflex" unicode="&#xd4;" horiz-adv-x="709" 
d="M200 25.5q-68 40.5 -108 116.5t-40 178v40q0 102 40 178t108 116.5t151 40.5h8q82 0 150 -40.5t108 -116.5t40 -178v-40q0 -102 -40 -178t-108 -116.5t-150 -40.5h-8q-83 0 -151 40.5zM359 92q43 0 78 18.5t57.5 47.5t30.5 59q4 29 4 123q0 95 -4 123q-8 30 -30.5 59
t-57.5 47.5t-78 18.5h-8q-43 0 -78.5 -18.5t-58 -47.5t-30.5 -59q-3 -31 -3 -123q0 -90 3 -123q8 -30 30.5 -59t58 -47.5t78.5 -18.5h8zM415 743l-61 76l-62 -76h-106l98 129h140l98 -129h-107z" />
    <glyph glyph-name="Odieresis" unicode="&#xd6;" horiz-adv-x="709" 
d="M200 25.5q-68 40.5 -108 116.5t-40 178v40q0 102 40 178t108 116.5t151 40.5h8q82 0 150 -40.5t108 -116.5t40 -178v-40q0 -102 -40 -178t-108 -116.5t-150 -40.5h-8q-83 0 -151 40.5zM359 92q43 0 78 18.5t57.5 47.5t30.5 59q4 29 4 123q0 95 -4 123q-8 30 -30.5 59
t-57.5 47.5t-78 18.5h-8q-43 0 -78.5 -18.5t-58 -47.5t-30.5 -59q-3 -31 -3 -123q0 -90 3 -123q8 -30 30.5 -59t58 -47.5t78.5 -18.5h8zM180 866h124v-119h-124v119zM406 866h124v-119h-124v119z" />
    <glyph glyph-name="Ograve" unicode="&#xd2;" horiz-adv-x="709" 
d="M200 25.5q-68 40.5 -108 116.5t-40 178v40q0 102 40 178t108 116.5t151 40.5h8q82 0 150 -40.5t108 -116.5t40 -178v-40q0 -102 -40 -178t-108 -116.5t-150 -40.5h-8q-83 0 -151 40.5zM359 92q43 0 78 18.5t57.5 47.5t30.5 59q4 29 4 123q0 95 -4 123q-8 30 -30.5 59
t-57.5 47.5t-78 18.5h-8q-43 0 -78.5 -18.5t-58 -47.5t-30.5 -59q-3 -31 -3 -123q0 -90 3 -123q8 -30 30.5 -59t58 -47.5t78.5 -18.5h8zM199 872h128l80 -129h-113z" />
    <glyph glyph-name="Ohungarumlaut" unicode="&#x150;" horiz-adv-x="709" 
d="M200 25.5q-68 40.5 -108 116.5t-40 178v40q0 102 40 178t108 116.5t151 40.5h8q82 0 150 -40.5t108 -116.5t40 -178v-40q0 -102 -40 -178t-108 -116.5t-150 -40.5h-8q-83 0 -151 40.5zM359 92q43 0 78 18.5t57.5 47.5t30.5 59q4 29 4 123q0 95 -4 123q-8 30 -30.5 59
t-57.5 47.5t-78 18.5h-8q-43 0 -78.5 -18.5t-58 -47.5t-30.5 -59q-3 -31 -3 -123q0 -90 3 -123q8 -30 30.5 -59t58 -47.5t78.5 -18.5h8zM285 872h103l-89 -129h-94zM460 872h103l-89 -129h-94z" />
    <glyph glyph-name="Omacron" unicode="&#x14c;" horiz-adv-x="709" 
d="M200 25.5q-68 40.5 -108 116.5t-40 178v40q0 102 40 178t108 116.5t151 40.5h8q82 0 150 -40.5t108 -116.5t40 -178v-40q0 -102 -40 -178t-108 -116.5t-150 -40.5h-8q-83 0 -151 40.5zM359 92q43 0 78 18.5t57.5 47.5t30.5 59q4 29 4 123q0 95 -4 123q-8 30 -30.5 59
t-57.5 47.5t-78 18.5h-8q-43 0 -78.5 -18.5t-58 -47.5t-30.5 -59q-3 -31 -3 -123q0 -90 3 -123q8 -30 30.5 -59t58 -47.5t78.5 -18.5h8zM218 846h274v-89h-274v89z" />
    <glyph glyph-name="Oslash" unicode="&#xd8;" horiz-adv-x="709" 
d="M635.5 494.5q21.5 -60.5 21.5 -134.5v-40q0 -102 -40 -178t-108 -116.5t-150 -40.5h-8q-100 0 -174 56l-29 -41h-72l58 81q-39 44 -60.5 104.5t-21.5 134.5v40q0 102 40 178t108 116.5t151 40.5h8q99 0 173 -56l29 41h72l-58 -81q39 -44 60.5 -104.5zM202 176l266 373
q-47 39 -109 39h-8q-43 0 -78.5 -18.5t-58 -47.5t-30.5 -59q-3 -31 -3 -123q0 -90 3 -123q8 -25 18 -41zM529 340q0 95 -4 123q-8 25 -18 41l-266 -373q47 -39 110 -39h8q43 0 78 18.5t57.5 47.5t30.5 59q4 29 4 123z" />
    <glyph glyph-name="Otilde" unicode="&#xd5;" horiz-adv-x="709" 
d="M200 25.5q-68 40.5 -108 116.5t-40 178v40q0 102 40 178t108 116.5t151 40.5h8q82 0 150 -40.5t108 -116.5t40 -178v-40q0 -102 -40 -178t-108 -116.5t-150 -40.5h-8q-83 0 -151 40.5zM359 92q43 0 78 18.5t57.5 47.5t30.5 59q4 29 4 123q0 95 -4 123q-8 30 -30.5 59
t-57.5 47.5t-78 18.5h-8q-43 0 -78.5 -18.5t-58 -47.5t-30.5 -59q-3 -31 -3 -123q0 -90 3 -123q8 -30 30.5 -59t58 -47.5t78.5 -18.5h8zM281 866q33 0 75 -20l20 -11q13 -6 25.5 -10.5t21.5 -4.5q15 0 21.5 11.5t8.5 34.5h72q-2 -60 -25 -91t-70 -31q-34 0 -76 22l-21 11
q-24 13 -44 13q-15 0 -23 -12t-9 -34h-73q3 122 97 122z" />
    <glyph glyph-name="OE" unicode="&#x152;" horiz-adv-x="974" 
d="M909 107v-107h-398v42q-67 -57 -159 -57h-8q-81 0 -147.5 40.5t-105.5 116.5t-39 178v40q0 102 39 178t105.5 116.5t147.5 40.5h8q90 0 159 -58v43h393v-107h-271v-166h241v-107h-241v-193h276zM450 117.5q40 25.5 61 64.5v316q-21 39 -61 64.5t-91 25.5h-8
q-43 0 -78.5 -18.5t-58 -47.5t-30.5 -59q-3 -31 -3 -123q0 -90 3 -123q8 -30 30.5 -59t58 -47.5t78.5 -18.5h8q51 0 91 25.5z" />
    <glyph glyph-name="P" unicode="P" horiz-adv-x="593" 
d="M437.5 654.5q50.5 -25.5 81 -73t30.5 -111.5v-8q0 -64 -30.5 -111.5t-81 -73t-110.5 -25.5h-116v-252h-120v680h236q60 0 110.5 -25.5zM426 466q0 24 -2 40q-8 30 -35 48.5t-65 18.5h-113v-214h113q38 0 65 18.5t35 48.5q2 16 2 40z" />
    <glyph glyph-name="Thorn" unicode="&#xde;" horiz-adv-x="593" 
d="M438 532.5q51 -25.5 81.5 -73t30.5 -110.5v-9q0 -63 -30.5 -111t-81.5 -73.5t-111 -25.5h-115v-130h-121v680h121v-122h115q60 0 111 -25.5zM427 344q0 25 -2 41q-9 30 -35.5 48t-64.5 18h-113v-213h113q38 0 64.5 18t35.5 48q2 18 2 40z" />
    <glyph glyph-name="Q" unicode="Q" horiz-adv-x="709" 
d="M630.5 172q-26.5 -66 -73.5 -110l78 -112h-119l-41 58q-55 -23 -116 -23h-8q-83 0 -151 40.5t-108 116.5t-40 178v40q0 102 40 178t108 116.5t151 40.5h8q82 0 150 -40.5t108 -116.5t40 -178v-40q0 -82 -26.5 -148zM492 155q25 30 33 62q4 29 4 123q0 95 -4 123
q-8 30 -30.5 59t-57.5 47.5t-78 18.5h-8q-43 0 -78.5 -18.5t-58 -47.5t-30.5 -59q-3 -31 -3 -123q0 -90 3 -123q8 -30 30.5 -59t58 -47.5t78.5 -18.5h8q26 0 52 8l-91 130h119z" />
    <glyph glyph-name="R" unicode="R" horiz-adv-x="617" 
d="M464 0l-252 355v-355h-121v680h225q60 0 111 -24.5t81.5 -71t30.5 -107.5v-9q0 -68 -39.5 -116t-102.5 -68l206 -284h-139zM315 358q35 0 62.5 18.5t36.5 49.5q2 14 2 39q0 23 -2 39q-9 33 -36 51t-63 18h-103v-215h103z" />
    <glyph glyph-name="Racute" unicode="&#x154;" horiz-adv-x="617" 
d="M464 0l-252 355v-355h-121v680h225q60 0 111 -24.5t81.5 -71t30.5 -107.5v-9q0 -68 -39.5 -116t-102.5 -68l206 -284h-139zM315 358q35 0 62.5 18.5t36.5 49.5q2 14 2 39q0 23 -2 39q-9 33 -36 51t-63 18h-103v-215h103zM329 872h128l-95 -129h-113z" />
    <glyph glyph-name="Rcaron" unicode="&#x158;" horiz-adv-x="617" 
d="M464 0l-252 355v-355h-121v680h225q60 0 111 -24.5t81.5 -71t30.5 -107.5v-9q0 -68 -39.5 -116t-102.5 -68l206 -284h-139zM315 358q35 0 62.5 18.5t36.5 49.5q2 14 2 39q0 23 -2 39q-9 33 -36 51t-63 18h-103v-215h103zM470 872l-98 -129h-140l-98 129h106l62 -76l61 76
h107z" />
    <glyph glyph-name="uni0156" unicode="&#x156;" horiz-adv-x="617" 
d="M464 0l-252 355v-355h-121v680h225q60 0 111 -24.5t81.5 -71t30.5 -107.5v-9q0 -68 -39.5 -116t-102.5 -68l206 -284h-139zM315 358q35 0 62.5 18.5t36.5 49.5q2 14 2 39q0 23 -2 39q-9 33 -36 51t-63 18h-103v-215h103zM252 -62h106v-89l-105 -85h-1v174z" />
    <glyph glyph-name="S" unicode="S" horiz-adv-x="550" 
d="M159 11q-53 26 -83 72t-31 103h116q4 -46 37 -74.5t80 -28.5h3q50 0 80 31t26 83q-6 19 -24.5 37.5t-56.5 41.5l-122 71q-52 30 -83.5 69t-31.5 96v3q0 50 26.5 91.5t72 65t99.5 23.5h6q70 0 123.5 -34t84.5 -85l-87 -60q-28 39 -56 59t-66 20h-3q-38 0 -62.5 -24.5
t-22.5 -64.5q6 -17 23 -31.5t51 -35.5l112 -66q60 -35 95 -77t35 -109v-3q0 -56 -27.5 -101.5t-77.5 -71.5t-113 -26h-3q-67 0 -120 26z" />
    <glyph glyph-name="Sacute" unicode="&#x15a;" horiz-adv-x="550" 
d="M159 11q-53 26 -83 72t-31 103h116q4 -46 37 -74.5t80 -28.5h3q50 0 80 31t26 83q-6 19 -24.5 37.5t-56.5 41.5l-122 71q-52 30 -83.5 69t-31.5 96v3q0 50 26.5 91.5t72 65t99.5 23.5h6q70 0 123.5 -34t84.5 -85l-87 -60q-28 39 -56 59t-66 20h-3q-38 0 -62.5 -24.5
t-22.5 -64.5q6 -17 23 -31.5t51 -35.5l112 -66q60 -35 95 -77t35 -109v-3q0 -56 -27.5 -101.5t-77.5 -71.5t-113 -26h-3q-67 0 -120 26zM302 872h128l-95 -129h-113z" />
    <glyph glyph-name="Scaron" unicode="&#x160;" horiz-adv-x="550" 
d="M159 11q-53 26 -83 72t-31 103h116q4 -46 37 -74.5t80 -28.5h3q50 0 80 31t26 83q-6 19 -24.5 37.5t-56.5 41.5l-122 71q-52 30 -83.5 69t-31.5 96v3q0 50 26.5 91.5t72 65t99.5 23.5h6q70 0 123.5 -34t84.5 -85l-87 -60q-28 39 -56 59t-66 20h-3q-38 0 -62.5 -24.5
t-22.5 -64.5q6 -17 23 -31.5t51 -35.5l112 -66q60 -35 95 -77t35 -109v-3q0 -56 -27.5 -101.5t-77.5 -71.5t-113 -26h-3q-67 0 -120 26zM443 872l-98 -129h-140l-98 129h106l62 -76l61 76h107z" />
    <glyph glyph-name="Scedilla" unicode="&#x15e;" horiz-adv-x="550" 
d="M465 296q35 -42 35 -109v-3q0 -53 -25 -97t-70 -70.5t-104 -30.5l-19 -48q38 -6 60.5 -28.5t22.5 -57.5v-3q0 -44 -30.5 -68t-83.5 -24h-4q-22 0 -44.5 6t-38.5 17v54q31 -22 74 -22h4q20 0 32 10t12 25v8q0 15 -14 24.5t-37 9.5h-36l41 99q-86 10 -139.5 65t-55.5 133
h116q4 -46 37 -74.5t80 -28.5h3q50 0 80 31t26 83q-6 19 -24.5 37.5t-56.5 41.5l-122 71q-52 30 -83.5 69t-31.5 96v3q0 50 26.5 91.5t72 65t99.5 23.5h6q70 0 123.5 -34t84.5 -85l-87 -60q-28 39 -56 59t-66 20h-3q-38 0 -62.5 -24.5t-22.5 -64.5q6 -17 23 -31.5t51 -35.5
l112 -66q60 -35 95 -77z" />
    <glyph glyph-name="uni0218" unicode="&#x218;" horiz-adv-x="550" 
d="M159 11q-53 26 -83 72t-31 103h116q4 -46 37 -74.5t80 -28.5h3q50 0 80 31t26 83q-6 19 -24.5 37.5t-56.5 41.5l-122 71q-52 30 -83.5 69t-31.5 96v3q0 50 26.5 91.5t72 65t99.5 23.5h6q70 0 123.5 -34t84.5 -85l-87 -60q-28 39 -56 59t-66 20h-3q-38 0 -62.5 -24.5
t-22.5 -64.5q6 -17 23 -31.5t51 -35.5l112 -66q60 -35 95 -77t35 -109v-3q0 -56 -27.5 -101.5t-77.5 -71.5t-113 -26h-3q-67 0 -120 26zM222 -62h106v-89l-105 -85h-1v174z" />
    <glyph glyph-name="uni1E9E" unicode="&#x1e9e;" horiz-adv-x="681" 
d="M641 213v-8q0 -63 -28.5 -111t-80 -74t-118.5 -26h-5q-25 0 -54 3t-45 8v95q12 -4 36.5 -6.5t42.5 -2.5h6q48 0 80.5 20.5t44.5 52.5q2 24 2 43q0 21 -2 43q-12 28 -47 50t-87 43l-62 25v2l106 203h-223v-573h-116v680h508l-134 -254q176 -80 176 -213z" />
    <glyph glyph-name="T" unicode="T" horiz-adv-x="561" 
d="M518 573h-176v-573h-122v573h-176v107h474v-107z" />
    <glyph glyph-name="Tbar" unicode="&#x166;" horiz-adv-x="561" 
d="M342 573v-189h105v-88h-105v-296h-122v296h-105v88h105v189h-176v107h474v-107h-176z" />
    <glyph glyph-name="Tcaron" unicode="&#x164;" horiz-adv-x="561" 
d="M518 573h-176v-573h-122v573h-176v107h474v-107zM449 872l-98 -129h-140l-98 129h106l62 -76l61 76h107z" />
    <glyph glyph-name="uni0162" unicode="&#x162;" horiz-adv-x="561" 
d="M313 0l-25 -62q38 -6 60.5 -28.5t22.5 -57.5v-3q0 -44 -30.5 -68t-83.5 -24h-4q-22 0 -44.5 6t-38.5 17v54q31 -22 74 -22h4q20 0 32 10t12 25v8q0 15 -14 24.5t-37 9.5h-36l46 111h-31v573h-176v107h474v-107h-176v-573h-29z" />
    <glyph glyph-name="uni021A" unicode="&#x21a;" horiz-adv-x="561" 
d="M518 573h-176v-573h-122v573h-176v107h474v-107zM228 -62h106v-89l-105 -85h-1v174z" />
    <glyph glyph-name="U" unicode="U" horiz-adv-x="693" 
d="M211.5 18.5q-59.5 33.5 -94 89t-34.5 119.5v453h123v-478q5 -25 22.5 -50.5t47 -42.5t67.5 -17h8q37 0 66.5 17t47.5 42.5t23 50.5v478h122v-453q0 -64 -34 -119.5t-93.5 -89t-131.5 -33.5h-8q-72 0 -131.5 33.5z" />
    <glyph glyph-name="Uacute" unicode="&#xda;" horiz-adv-x="693" 
d="M211.5 18.5q-59.5 33.5 -94 89t-34.5 119.5v453h123v-478q5 -25 22.5 -50.5t47 -42.5t67.5 -17h8q37 0 66.5 17t47.5 42.5t23 50.5v478h122v-453q0 -64 -34 -119.5t-93.5 -89t-131.5 -33.5h-8q-72 0 -131.5 33.5zM373 872h128l-95 -129h-113z" />
    <glyph glyph-name="Ucircumflex" unicode="&#xdb;" horiz-adv-x="693" 
d="M211.5 18.5q-59.5 33.5 -94 89t-34.5 119.5v453h123v-478q5 -25 22.5 -50.5t47 -42.5t67.5 -17h8q37 0 66.5 17t47.5 42.5t23 50.5v478h122v-453q0 -64 -34 -119.5t-93.5 -89t-131.5 -33.5h-8q-72 0 -131.5 33.5zM408 743l-61 76l-62 -76h-106l98 129h140l98 -129h-107z
" />
    <glyph glyph-name="Udieresis" unicode="&#xdc;" horiz-adv-x="693" 
d="M211.5 18.5q-59.5 33.5 -94 89t-34.5 119.5v453h123v-478q5 -25 22.5 -50.5t47 -42.5t67.5 -17h8q37 0 66.5 17t47.5 42.5t23 50.5v478h122v-453q0 -64 -34 -119.5t-93.5 -89t-131.5 -33.5h-8q-72 0 -131.5 33.5zM172 866h124v-119h-124v119zM398 866h124v-119h-124v119z
" />
    <glyph glyph-name="Ugrave" unicode="&#xd9;" horiz-adv-x="693" 
d="M211.5 18.5q-59.5 33.5 -94 89t-34.5 119.5v453h123v-478q5 -25 22.5 -50.5t47 -42.5t67.5 -17h8q37 0 66.5 17t47.5 42.5t23 50.5v478h122v-453q0 -64 -34 -119.5t-93.5 -89t-131.5 -33.5h-8q-72 0 -131.5 33.5zM191 872h128l80 -129h-113z" />
    <glyph glyph-name="Uhungarumlaut" unicode="&#x170;" horiz-adv-x="693" 
d="M211.5 18.5q-59.5 33.5 -94 89t-34.5 119.5v453h123v-478q5 -25 22.5 -50.5t47 -42.5t67.5 -17h8q37 0 66.5 17t47.5 42.5t23 50.5v478h122v-453q0 -64 -34 -119.5t-93.5 -89t-131.5 -33.5h-8q-72 0 -131.5 33.5zM277 872h103l-89 -129h-94zM452 872h103l-89 -129h-94z
" />
    <glyph glyph-name="Umacron" unicode="&#x16a;" horiz-adv-x="693" 
d="M211.5 18.5q-59.5 33.5 -94 89t-34.5 119.5v453h123v-478q5 -25 22.5 -50.5t47 -42.5t67.5 -17h8q37 0 66.5 17t47.5 42.5t23 50.5v478h122v-453q0 -64 -34 -119.5t-93.5 -89t-131.5 -33.5h-8q-72 0 -131.5 33.5zM210 846h274v-89h-274v89z" />
    <glyph glyph-name="Uogonek" unicode="&#x172;" horiz-adv-x="693" 
d="M610 680v-453q0 -58 -28.5 -110t-78.5 -86l-44 -43q-42 -39 -42 -80v-2q0 -17 12 -28t31 -11h3q14 0 29 3v-58q-23 -12 -56 -12h-4q-50 0 -76 22.5t-26 63.5v3q0 23 12 48t36 49q-9 -1 -27 -1h-8q-72 0 -131.5 33.5t-94 89t-34.5 119.5v453h123v-478q5 -25 22.5 -50.5
t47 -42.5t67.5 -17h8q37 0 66.5 17t47.5 42.5t23 50.5v478h122z" />
    <glyph glyph-name="Uring" unicode="&#x16e;" horiz-adv-x="693" 
d="M211.5 18.5q-59.5 33.5 -94 89t-34.5 119.5v453h123v-478q5 -25 22.5 -50.5t47 -42.5t67.5 -17h8q37 0 66.5 17t47.5 42.5t23 50.5v478h122v-453q0 -64 -34 -119.5t-93.5 -89t-131.5 -33.5h-8q-72 0 -131.5 33.5zM271 707.5q-32 30.5 -32 73.5t32 73.5t76 30.5
t75.5 -30.5t31.5 -73.5t-31.5 -73.5t-75.5 -30.5t-76 30.5zM380.5 747.5q14.5 14.5 14.5 33.5q0 20 -14.5 34t-33.5 14q-20 0 -34.5 -14t-14.5 -34t14.5 -34t34.5 -14q19 0 33.5 14.5z" />
    <glyph glyph-name="V" unicode="V" horiz-adv-x="658" 
d="M644 680l-314 -705h-2l-314 705h126l194 -442l191 442h119z" />
    <glyph glyph-name="W" unicode="W" horiz-adv-x="920" 
d="M902 680l-265 -705h-2l-176 431l-173 -431h-2l-266 705h126l154 -416l164 416h1l171 -417l150 417h118z" />
    <glyph glyph-name="Wacute" unicode="&#x1e82;" horiz-adv-x="920" 
d="M902 680l-265 -705h-2l-176 431l-173 -431h-2l-266 705h126l154 -416l164 416h1l171 -417l150 417h118zM487 872h128l-95 -129h-113z" />
    <glyph glyph-name="Wcircumflex" unicode="&#x174;" horiz-adv-x="920" 
d="M902 680l-265 -705h-2l-176 431l-173 -431h-2l-266 705h126l154 -416l164 416h1l171 -417l150 417h118zM521 743l-61 76l-62 -76h-106l98 129h140l98 -129h-107z" />
    <glyph glyph-name="Wdieresis" unicode="&#x1e84;" horiz-adv-x="920" 
d="M902 680l-265 -705h-2l-176 431l-173 -431h-2l-266 705h126l154 -416l164 416h1l171 -417l150 417h118zM285 866h124v-119h-124v119zM511 866h124v-119h-124v119z" />
    <glyph glyph-name="Wgrave" unicode="&#x1e80;" horiz-adv-x="920" 
d="M902 680l-265 -705h-2l-176 431l-173 -431h-2l-266 705h126l154 -416l164 416h1l171 -417l150 417h118zM304 872h128l80 -129h-113z" />
    <glyph glyph-name="X" unicode="X" horiz-adv-x="676" 
d="M518 0l-182 272l-182 -272h-136l242 350l-229 330h140l171 -253l167 253h135l-224 -330l238 -350h-140z" />
    <glyph glyph-name="Y" unicode="Y" horiz-adv-x="628" 
d="M378 292v-292h-122v282l-242 398h134l169 -281l167 281h130z" />
    <glyph glyph-name="Yacute" unicode="&#xdd;" horiz-adv-x="628" 
d="M378 292v-292h-122v282l-242 398h134l169 -281l167 281h130zM341 872h128l-95 -129h-113z" />
    <glyph glyph-name="Ycircumflex" unicode="&#x176;" horiz-adv-x="628" 
d="M378 292v-292h-122v282l-242 398h134l169 -281l167 281h130zM375 743l-61 76l-62 -76h-106l98 129h140l98 -129h-107z" />
    <glyph glyph-name="Ydieresis" unicode="&#x178;" horiz-adv-x="628" 
d="M378 292v-292h-122v282l-242 398h134l169 -281l167 281h130zM140 866h124v-119h-124v119zM366 866h124v-119h-124v119z" />
    <glyph glyph-name="Ygrave" unicode="&#x1ef2;" horiz-adv-x="628" 
d="M378 292v-292h-122v282l-242 398h134l169 -281l167 281h130zM159 872h128l80 -129h-113z" />
    <glyph glyph-name="Z" unicode="Z" horiz-adv-x="587" 
d="M573 678l-357 -570h332v-108h-534v2l358 571h-333v107h534v-2z" />
    <glyph glyph-name="Zacute" unicode="&#x179;" horiz-adv-x="587" 
d="M573 678l-357 -570h332v-108h-534v2l358 571h-333v107h534v-2zM322 872h128l-95 -129h-113z" />
    <glyph glyph-name="Zcaron" unicode="&#x17d;" horiz-adv-x="587" 
d="M573 678l-357 -570h332v-108h-534v2l358 571h-333v107h534v-2zM463 872l-98 -129h-140l-98 129h106l62 -76l61 76h107z" />
    <glyph glyph-name="Zdotaccent" unicode="&#x17b;" horiz-adv-x="587" 
d="M573 678l-357 -570h332v-108h-534v2l358 571h-333v107h534v-2zM226 866h138v-119h-138v119z" />
    <glyph glyph-name="a" unicode="a" horiz-adv-x="580" 
d="M498 489v-489h-110v44q-25 -27 -58.5 -42t-71.5 -15h-7q-56 0 -102.5 30t-74.5 86.5t-28 131.5v18q0 75 28 131.5t74.5 87t102.5 30.5h7q39 0 72 -15t58 -43v45h110zM342 100q24 14 39 36v217q-15 22 -39 36t-55 14h-8q-41 0 -69 -22.5t-38 -52.5q-4 -26 -4 -83
q0 -55 4 -85q10 -29 38 -51.5t69 -22.5h8q31 0 55 14z" />
    <glyph glyph-name="aacute" unicode="&#xe1;" horiz-adv-x="580" 
d="M498 489v-489h-110v44q-25 -27 -58.5 -42t-71.5 -15h-7q-56 0 -102.5 30t-74.5 86.5t-28 131.5v18q0 75 28 131.5t74.5 87t102.5 30.5h7q39 0 72 -15t58 -43v45h110zM342 100q24 14 39 36v217q-15 22 -39 36t-55 14h-8q-41 0 -69 -22.5t-38 -52.5q-4 -26 -4 -83
q0 -55 4 -85q10 -29 38 -51.5t69 -22.5h8q31 0 55 14zM316 710h127l-97 -140h-113z" />
    <glyph glyph-name="abreve" unicode="&#x103;" horiz-adv-x="580" 
d="M498 489v-489h-110v44q-25 -27 -58.5 -42t-71.5 -15h-7q-56 0 -102.5 30t-74.5 86.5t-28 131.5v18q0 75 28 131.5t74.5 87t102.5 30.5h7q39 0 72 -15t58 -43v45h110zM342 100q24 14 39 36v217q-15 22 -39 36t-55 14h-8q-41 0 -69 -22.5t-38 -52.5q-4 -26 -4 -83
q0 -55 4 -85q10 -29 38 -51.5t69 -22.5h8q31 0 55 14zM184 601.5q-39 38.5 -40 93.5h71q2 -24 21.5 -41t52.5 -17t52.5 17t21.5 41h71q-1 -55 -40 -93.5t-105 -38.5t-105 38.5z" />
    <glyph glyph-name="acircumflex" unicode="&#xe2;" horiz-adv-x="580" 
d="M498 489v-489h-110v44q-25 -27 -58.5 -42t-71.5 -15h-7q-56 0 -102.5 30t-74.5 86.5t-28 131.5v18q0 75 28 131.5t74.5 87t102.5 30.5h7q39 0 72 -15t58 -43v45h110zM342 100q24 14 39 36v217q-15 22 -39 36t-55 14h-8q-41 0 -69 -22.5t-38 -52.5q-4 -26 -4 -83
q0 -55 4 -85q10 -29 38 -51.5t69 -22.5h8q31 0 55 14zM352 570l-64 84l-64 -84h-106l100 140h140l100 -140h-106z" />
    <glyph glyph-name="adieresis" unicode="&#xe4;" horiz-adv-x="580" 
d="M498 489v-489h-110v44q-25 -27 -58.5 -42t-71.5 -15h-7q-56 0 -102.5 30t-74.5 86.5t-28 131.5v18q0 75 28 131.5t74.5 87t102.5 30.5h7q39 0 72 -15t58 -43v45h110zM342 100q24 14 39 36v217q-15 22 -39 36t-55 14h-8q-41 0 -69 -22.5t-38 -52.5q-4 -26 -4 -83
q0 -55 4 -85q10 -29 38 -51.5t69 -22.5h8q31 0 55 14zM121 701h124v-120h-124v120zM334 701h123v-120h-123v120z" />
    <glyph glyph-name="agrave" unicode="&#xe0;" horiz-adv-x="580" 
d="M498 489v-489h-110v44q-25 -27 -58.5 -42t-71.5 -15h-7q-56 0 -102.5 30t-74.5 86.5t-28 131.5v18q0 75 28 131.5t74.5 87t102.5 30.5h7q39 0 72 -15t58 -43v45h110zM342 100q24 14 39 36v217q-15 22 -39 36t-55 14h-8q-41 0 -69 -22.5t-38 -52.5q-4 -26 -4 -83
q0 -55 4 -85q10 -29 38 -51.5t69 -22.5h8q31 0 55 14zM134 710h127l83 -140h-113z" />
    <glyph glyph-name="amacron" unicode="&#x101;" horiz-adv-x="580" 
d="M498 489v-489h-110v44q-25 -27 -58.5 -42t-71.5 -15h-7q-56 0 -102.5 30t-74.5 86.5t-28 131.5v18q0 75 28 131.5t74.5 87t102.5 30.5h7q39 0 72 -15t58 -43v45h110zM342 100q24 14 39 36v217q-15 22 -39 36t-55 14h-8q-41 0 -69 -22.5t-38 -52.5q-4 -26 -4 -83
q0 -55 4 -85q10 -29 38 -51.5t69 -22.5h8q31 0 55 14zM152 679h274v-90h-274v90z" />
    <glyph glyph-name="aogonek" unicode="&#x105;" horiz-adv-x="580" 
d="M423 -92v-2q0 -17 12 -28t31 -11h3q14 0 29 3v-58q-22 -12 -56 -12h-4q-50 0 -76 22.5t-26 63.5v3q0 27 20 57t56 51l5 3h-29v44q-25 -27 -58.5 -42t-71.5 -15h-7q-56 0 -102.5 30t-74.5 86.5t-28 131.5v18q0 75 28 131.5t74.5 87t102.5 30.5h7q39 0 72 -15t58 -43v45
h110v-489l-26 -18q-49 -35 -49 -74zM342 100q24 14 39 36v217q-15 22 -39 36t-55 14h-8q-41 0 -69 -22.5t-38 -52.5q-4 -26 -4 -83q0 -55 4 -85q10 -29 38 -51.5t69 -22.5h8q31 0 55 14z" />
    <glyph glyph-name="aring" unicode="&#xe5;" horiz-adv-x="580" 
d="M498 489v-489h-110v44q-25 -27 -58.5 -42t-71.5 -15h-7q-56 0 -102.5 30t-74.5 86.5t-28 131.5v18q0 75 28 131.5t74.5 87t102.5 30.5h7q39 0 72 -15t58 -43v45h110zM342 100q24 14 39 36v217q-15 22 -39 36t-55 14h-8q-41 0 -69 -22.5t-38 -52.5q-4 -26 -4 -83
q0 -55 4 -85q10 -29 38 -51.5t69 -22.5h8q31 0 55 14zM211.5 591q-32.5 31 -32.5 74t32.5 74t77.5 31t77.5 -31t32.5 -74t-32.5 -74t-77.5 -31t-77.5 31zM324 630.5q15 14.5 15 34.5t-15 34.5t-35 14.5t-35 -14.5t-15 -34.5t15 -34.5t35 -14.5t35 14.5z" />
    <glyph glyph-name="atilde" unicode="&#xe3;" horiz-adv-x="580" 
d="M498 489v-489h-110v44q-25 -27 -58.5 -42t-71.5 -15h-7q-56 0 -102.5 30t-74.5 86.5t-28 131.5v18q0 75 28 131.5t74.5 87t102.5 30.5h7q39 0 72 -15t58 -43v45h110zM342 100q24 14 39 36v217q-15 22 -39 36t-55 14h-8q-41 0 -69 -22.5t-38 -52.5q-4 -26 -4 -83
q0 -55 4 -85q10 -29 38 -51.5t69 -22.5h8q31 0 55 14zM144.5 671.5q23.5 33.5 71.5 33.5q32 0 74 -22l21 -11q30 -16 46 -16q13 0 20.5 13t8.5 36h71q-3 -128 -95 -128q-36 0 -75 21l-21 12q-15 8 -23.5 11.5t-18.5 3.5q-14 0 -23 -13t-11 -35h-71q2 61 25.5 94.5z" />
    <glyph glyph-name="ae" unicode="&#xe6;" horiz-adv-x="848" 
d="M800 217h-333q0 -17 2 -51q7 -36 38 -62t73 -26h6q33 0 57.5 15.5t37.5 43.5h115q-23 -74 -80.5 -113t-130.5 -39h-6q-46 0 -88 17.5t-73 50.5q-72 -68 -175 -68h-5q-52 0 -96 19t-70 53.5t-26 79.5v9q0 67 53 107.5t143 40.5h108v74q-9 18 -29 31t-51 13h-4
q-32 0 -55.5 -15.5t-32.5 -39.5h-119q17 67 72.5 106.5t129.5 39.5h5q52 0 92 -15.5t66 -43.5q31 29 69.5 44.5t81.5 15.5h5q60 0 111 -29t81 -83t30 -125q0 -30 -2 -50zM689 324q-8 37 -36.5 62t-70.5 25h-6q-41 0 -70.5 -25.5t-36.5 -59.5q-1 -11 -1 -32h221v30zM369 130
q-17 43 -18 87h-100q-33 0 -56 -13t-31 -30q-1 -9 -1 -28q0 -18 1 -27q8 -17 30.5 -29.5t55.5 -12.5h5q69 0 114 53z" />
    <glyph glyph-name="b" unicode="b" horiz-adv-x="583" 
d="M432 471.5q47 -30.5 75 -87t28 -131.5v-18q0 -75 -28 -131.5t-75 -86.5t-103 -30h-7q-39 0 -72.5 15t-58.5 43v-45h-110v710h117v-259q49 51 124 51h7q56 0 103 -30.5zM413 245q0 57 -4 83q-11 30 -39 52.5t-69 22.5h-7q-32 0 -56.5 -14.5t-39.5 -36.5v-215
q15 -22 39.5 -36.5t56.5 -14.5h7q41 0 69 22t39 52q4 30 4 85z" />
    <glyph glyph-name="c" unicode="c" horiz-adv-x="484" 
d="M169.5 14q-55.5 29 -89.5 86t-34 136v17q0 79 34 136t89.5 86t119.5 29h6q41 0 78.5 -14t58.5 -31v-109q-67 55 -129 55h-7q-45 0 -78 -22.5t-46 -51.5q-4 -28 -4 -86q0 -57 4 -87q13 -29 46 -52t78 -23h7q63 0 129 56v-109q-20 -18 -58 -31.5t-79 -13.5h-6
q-64 0 -119.5 29z" />
    <glyph glyph-name="cacute" unicode="&#x107;" horiz-adv-x="484" 
d="M169.5 14q-55.5 29 -89.5 86t-34 136v17q0 79 34 136t89.5 86t119.5 29h6q41 0 78.5 -14t58.5 -31v-109q-67 55 -129 55h-7q-45 0 -78 -22.5t-46 -51.5q-4 -28 -4 -86q0 -57 4 -87q13 -29 46 -52t78 -23h7q63 0 129 56v-109q-20 -18 -58 -31.5t-79 -13.5h-6
q-64 0 -119.5 29zM304 707h127l-97 -140h-113z" />
    <glyph glyph-name="ccaron" unicode="&#x10d;" horiz-adv-x="484" 
d="M169.5 14q-55.5 29 -89.5 86t-34 136v17q0 79 34 136t89.5 86t119.5 29h6q41 0 78.5 -14t58.5 -31v-109q-67 55 -129 55h-7q-45 0 -78 -22.5t-46 -51.5q-4 -28 -4 -86q0 -57 4 -87q13 -29 46 -52t78 -23h7q63 0 129 56v-109q-20 -18 -58 -31.5t-79 -13.5h-6
q-64 0 -119.5 29zM446 707l-100 -140h-140l-100 140h106l64 -84l64 84h106z" />
    <glyph glyph-name="ccedilla" unicode="&#xe7;" horiz-adv-x="484" 
d="M218 382.5q-33 -22.5 -46 -51.5q-4 -28 -4 -86q0 -57 4 -87q13 -29 46 -52t78 -23h7q63 0 129 56v-109q-19 -17 -55.5 -30.5t-75.5 -14.5l-19 -47q38 -6 60.5 -28.5t22.5 -57.5v-3q0 -44 -30.5 -68t-83.5 -24h-4q-22 0 -44.5 6t-38.5 17v54q31 -22 74 -22h4q20 0 32 10
t12 25v8q0 15 -14 24.5t-37 9.5h-36l41 100q-83 16 -138.5 80.5t-55.5 166.5v17q0 79 34 136t89.5 86t119.5 29h6q41 0 78.5 -14t58.5 -31v-109q-67 55 -129 55h-7q-45 0 -78 -22.5z" />
    <glyph glyph-name="cdotaccent" unicode="&#x10b;" horiz-adv-x="484" 
d="M169.5 14q-55.5 29 -89.5 86t-34 136v17q0 79 34 136t89.5 86t119.5 29h6q41 0 78.5 -14t58.5 -31v-109q-67 55 -129 55h-7q-45 0 -78 -22.5t-46 -51.5q-4 -28 -4 -86q0 -57 4 -87q13 -29 46 -52t78 -23h7q63 0 129 56v-109q-20 -18 -58 -31.5t-79 -13.5h-6
q-64 0 -119.5 29zM208 698h137v-122h-137v122z" />
    <glyph glyph-name="d" unicode="d" horiz-adv-x="583" 
d="M502 710v-710h-110v45q-25 -28 -58.5 -43t-72.5 -15h-7q-56 0 -103 30t-75 86.5t-28 131.5v18q0 75 28 131.5t75 87t103 30.5h7q75 0 124 -51v259h117zM345.5 100.5q24.5 14.5 39.5 36.5v215q-15 22 -39.5 36.5t-56.5 14.5h-7q-41 0 -69 -22.5t-39 -52.5q-4 -26 -4 -83
q0 -55 4 -85q11 -30 39 -52t69 -22h7q32 0 56.5 14.5z" />
    <glyph glyph-name="eth" unicode="&#xf0;" horiz-adv-x="567" 
d="M497 406.5q30 -76.5 30 -134.5v-59q0 -65 -32.5 -117t-87 -81.5t-118.5 -29.5h-6q-63 0 -117.5 29.5t-87 81.5t-32.5 117v8q0 64 30.5 115t82 80t111.5 29h6q29 0 56 -8t48 -24q-29 61 -64 110l-128 -41l-16 53l109 35q-48 59 -104 110h126q38 -31 78 -78l90 29l16 -53
l-71 -23q51 -72 81 -148.5zM409 217q0 35 -2 49q-9 33 -41.5 59t-76.5 26h-6q-44 0 -76.5 -26t-40.5 -59q-2 -14 -2 -49q0 -33 2 -49q8 -33 40.5 -59t76.5 -26h6q44 0 76.5 26t41.5 59q2 16 2 49z" />
    <glyph glyph-name="dcaron" unicode="&#x10f;" horiz-adv-x="684" 
d="M502 710v-710h-110v45q-25 -28 -58.5 -43t-72.5 -15h-7q-56 0 -103 30t-75 86.5t-28 131.5v18q0 75 28 131.5t75 87t103 30.5h7q75 0 124 -51v259h117zM345.5 100.5q24.5 14.5 39.5 36.5v215q-15 22 -39.5 36.5t-56.5 14.5h-7q-41 0 -69 -22.5t-39 -52.5q-4 -26 -4 -83
q0 -55 4 -85q11 -30 39 -52t69 -22h7q32 0 56.5 14.5zM597 710h93l-45 -193h-86z" />
    <glyph glyph-name="dcroat" unicode="&#x111;" horiz-adv-x="583" 
d="M551 565h-49v-565h-110v45q-25 -28 -58.5 -43t-72.5 -15h-7q-56 0 -103 30t-75 86.5t-28 131.5v18q0 75 28 131.5t75 87t103 30.5h7q75 0 124 -51v114h-110v66h110v79h117v-79h49v-66zM345.5 100.5q24.5 14.5 39.5 36.5v215q-15 22 -39.5 36.5t-56.5 14.5h-7
q-41 0 -69 -22.5t-39 -52.5q-4 -26 -4 -83q0 -55 4 -85q11 -30 39 -52t69 -22h7q32 0 56.5 14.5z" />
    <glyph glyph-name="e" unicode="e" horiz-adv-x="551" 
d="M503 214h-339q0 -16 2 -46q8 -37 39 -63.5t75 -26.5h6q34 0 59.5 15.5t38.5 43.5h116q-23 -74 -82 -113.5t-133 -39.5h-6q-62 0 -115.5 30.5t-85.5 88t-32 133.5v17q0 76 31 133t83.5 87.5t115.5 30.5h5q61 0 112.5 -28.5t82 -82t30.5 -125.5q0 -24 -3 -54zM393 324
q-8 37 -37.5 62t-72.5 25h-6q-43 0 -73 -25.5t-38 -60.5q-1 -10 -1 -30h228v29z" />
    <glyph glyph-name="eacute" unicode="&#xe9;" horiz-adv-x="551" 
d="M503 214h-339q0 -16 2 -46q8 -37 39 -63.5t75 -26.5h6q34 0 59.5 15.5t38.5 43.5h116q-23 -74 -82 -113.5t-133 -39.5h-6q-62 0 -115.5 30.5t-85.5 88t-32 133.5v17q0 76 31 133t83.5 87.5t115.5 30.5h5q61 0 112.5 -28.5t82 -82t30.5 -125.5q0 -24 -3 -54zM393 324
q-8 37 -37.5 62t-72.5 25h-6q-43 0 -73 -25.5t-38 -60.5q-1 -10 -1 -30h228v29zM311 710h127l-97 -140h-113z" />
    <glyph glyph-name="ecaron" unicode="&#x11b;" horiz-adv-x="551" 
d="M503 214h-339q0 -16 2 -46q8 -37 39 -63.5t75 -26.5h6q34 0 59.5 15.5t38.5 43.5h116q-23 -74 -82 -113.5t-133 -39.5h-6q-62 0 -115.5 30.5t-85.5 88t-32 133.5v17q0 76 31 133t83.5 87.5t115.5 30.5h5q61 0 112.5 -28.5t82 -82t30.5 -125.5q0 -24 -3 -54zM393 324
q-8 37 -37.5 62t-72.5 25h-6q-43 0 -73 -25.5t-38 -60.5q-1 -10 -1 -30h228v29zM453 710l-100 -140h-140l-100 140h106l64 -84l64 84h106z" />
    <glyph glyph-name="ecircumflex" unicode="&#xea;" horiz-adv-x="551" 
d="M503 214h-339q0 -16 2 -46q8 -37 39 -63.5t75 -26.5h6q34 0 59.5 15.5t38.5 43.5h116q-23 -74 -82 -113.5t-133 -39.5h-6q-62 0 -115.5 30.5t-85.5 88t-32 133.5v17q0 76 31 133t83.5 87.5t115.5 30.5h5q61 0 112.5 -28.5t82 -82t30.5 -125.5q0 -24 -3 -54zM393 324
q-8 37 -37.5 62t-72.5 25h-6q-43 0 -73 -25.5t-38 -60.5q-1 -10 -1 -30h228v29zM347 570l-64 84l-64 -84h-106l100 140h140l100 -140h-106z" />
    <glyph glyph-name="edieresis" unicode="&#xeb;" horiz-adv-x="551" 
d="M503 214h-339q0 -16 2 -46q8 -37 39 -63.5t75 -26.5h6q34 0 59.5 15.5t38.5 43.5h116q-23 -74 -82 -113.5t-133 -39.5h-6q-62 0 -115.5 30.5t-85.5 88t-32 133.5v17q0 76 31 133t83.5 87.5t115.5 30.5h5q61 0 112.5 -28.5t82 -82t30.5 -125.5q0 -24 -3 -54zM393 324
q-8 37 -37.5 62t-72.5 25h-6q-43 0 -73 -25.5t-38 -60.5q-1 -10 -1 -30h228v29zM115 701h124v-120h-124v120zM328 701h123v-120h-123v120z" />
    <glyph glyph-name="edotaccent" unicode="&#x117;" horiz-adv-x="551" 
d="M503 214h-339q0 -16 2 -46q8 -37 39 -63.5t75 -26.5h6q34 0 59.5 15.5t38.5 43.5h116q-23 -74 -82 -113.5t-133 -39.5h-6q-62 0 -115.5 30.5t-85.5 88t-32 133.5v17q0 76 31 133t83.5 87.5t115.5 30.5h5q61 0 112.5 -28.5t82 -82t30.5 -125.5q0 -24 -3 -54zM393 324
q-8 37 -37.5 62t-72.5 25h-6q-43 0 -73 -25.5t-38 -60.5q-1 -10 -1 -30h228v29zM215 701h137v-122h-137v122z" />
    <glyph glyph-name="egrave" unicode="&#xe8;" horiz-adv-x="551" 
d="M503 214h-339q0 -16 2 -46q8 -37 39 -63.5t75 -26.5h6q34 0 59.5 15.5t38.5 43.5h116q-23 -74 -82 -113.5t-133 -39.5h-6q-62 0 -115.5 30.5t-85.5 88t-32 133.5v17q0 76 31 133t83.5 87.5t115.5 30.5h5q61 0 112.5 -28.5t82 -82t30.5 -125.5q0 -24 -3 -54zM393 324
q-8 37 -37.5 62t-72.5 25h-6q-43 0 -73 -25.5t-38 -60.5q-1 -10 -1 -30h228v29zM128 710h127l83 -140h-113z" />
    <glyph glyph-name="emacron" unicode="&#x113;" horiz-adv-x="551" 
d="M503 214h-339q0 -16 2 -46q8 -37 39 -63.5t75 -26.5h6q34 0 59.5 15.5t38.5 43.5h116q-23 -74 -82 -113.5t-133 -39.5h-6q-62 0 -115.5 30.5t-85.5 88t-32 133.5v17q0 76 31 133t83.5 87.5t115.5 30.5h5q61 0 112.5 -28.5t82 -82t30.5 -125.5q0 -24 -3 -54zM393 324
q-8 37 -37.5 62t-72.5 25h-6q-43 0 -73 -25.5t-38 -60.5q-1 -10 -1 -30h228v29zM146 679h274v-90h-274v90z" />
    <glyph glyph-name="eogonek" unicode="&#x119;" horiz-adv-x="551" 
d="M503 214h-339q0 -16 2 -46q8 -37 39 -63.5t75 -26.5h6q34 0 59.5 15.5t38.5 43.5h116q-24 -77 -90 -119l-31 -30q-42 -39 -42 -80v-2q0 -17 12 -28t31 -11h3q14 0 29 3v-58q-22 -12 -56 -12h-4q-50 0 -76 22.5t-26 63.5v3q0 22 12 46.5t34 48.5h-11h-6q-62 0 -115.5 30.5
t-85.5 88t-32 133.5v17q0 76 31 133t83.5 87.5t115.5 30.5h5q61 0 112.5 -28.5t82 -82t30.5 -125.5q0 -24 -3 -54zM393 324q-8 37 -37.5 62t-72.5 25h-6q-43 0 -73 -25.5t-38 -60.5q-1 -10 -1 -30h228v29z" />
    <glyph glyph-name="f" unicode="f" horiz-adv-x="354" 
d="M248.5 610.5q-14.5 -9.5 -18.5 -27.5v-94h78v-88h-78v-401h-116v401h-66v88h66v93q0 62 40 97.5t101 35.5q35 0 54 -7v-90q-12 2 -25 2q-21 0 -35.5 -9.5z" />
    <glyph glyph-name="g" unicode="g" horiz-adv-x="570" 
d="M493 489v-502q0 -55 -28 -101.5t-77 -73.5t-109 -27h-6q-79 0 -137.5 39t-71.5 112h117q9 -27 34 -42.5t59 -15.5h6q38 0 63.5 21.5t32.5 52.5v94q-51 -49 -120 -49h-7q-54 0 -100 29.5t-73.5 84.5t-27.5 129v18q0 74 27.5 129t73.5 85t100 30h7q37 0 70 -15t57 -42v44
h110zM338.5 110.5q23.5 14.5 37.5 37.5v203q-14 23 -37.5 37.5t-53.5 14.5h-8q-39 0 -66 -22.5t-37 -52.5q-4 -26 -4 -78q0 -50 4 -80q10 -29 37 -51.5t66 -22.5h8q30 0 53.5 14.5z" />
    <glyph glyph-name="gbreve" unicode="&#x11f;" horiz-adv-x="570" 
d="M493 489v-502q0 -55 -28 -101.5t-77 -73.5t-109 -27h-6q-79 0 -137.5 39t-71.5 112h117q9 -27 34 -42.5t59 -15.5h6q38 0 63.5 21.5t32.5 52.5v94q-51 -49 -120 -49h-7q-54 0 -100 29.5t-73.5 84.5t-27.5 129v18q0 74 27.5 129t73.5 85t100 30h7q37 0 70 -15t57 -42v44
h110zM338.5 110.5q23.5 14.5 37.5 37.5v203q-14 23 -37.5 37.5t-53.5 14.5h-8q-39 0 -66 -22.5t-37 -52.5q-4 -26 -4 -78q0 -50 4 -80q10 -29 37 -51.5t66 -22.5h8q30 0 53.5 14.5zM181 601.5q-39 38.5 -40 93.5h71q2 -24 21.5 -41t52.5 -17t52.5 17t21.5 41h71
q-1 -55 -40 -93.5t-105 -38.5t-105 38.5z" />
    <glyph glyph-name="uni0123" unicode="&#x123;" horiz-adv-x="570" 
d="M493 489v-502q0 -55 -28 -101.5t-77 -73.5t-109 -27h-6q-79 0 -137.5 39t-71.5 112h117q9 -27 34 -42.5t59 -15.5h6q38 0 63.5 21.5t32.5 52.5v94q-51 -49 -120 -49h-7q-54 0 -100 29.5t-73.5 84.5t-27.5 129v18q0 74 27.5 129t73.5 85t100 30h7q37 0 70 -15t57 -42v44
h110zM338.5 110.5q23.5 14.5 37.5 37.5v203q-14 23 -37.5 37.5t-53.5 14.5h-8q-39 0 -66 -22.5t-37 -52.5q-4 -26 -4 -78q0 -50 4 -80q10 -29 37 -51.5t66 -22.5h8q30 0 53.5 14.5zM232 701l105 85h1v-205h-106v120z" />
    <glyph glyph-name="gdotaccent" unicode="&#x121;" horiz-adv-x="570" 
d="M493 489v-502q0 -55 -28 -101.5t-77 -73.5t-109 -27h-6q-79 0 -137.5 39t-71.5 112h117q9 -27 34 -42.5t59 -15.5h6q38 0 63.5 21.5t32.5 52.5v94q-51 -49 -120 -49h-7q-54 0 -100 29.5t-73.5 84.5t-27.5 129v18q0 74 27.5 129t73.5 85t100 30h7q37 0 70 -15t57 -42v44
h110zM338.5 110.5q23.5 14.5 37.5 37.5v203q-14 23 -37.5 37.5t-53.5 14.5h-8q-39 0 -66 -22.5t-37 -52.5q-4 -26 -4 -78q0 -50 4 -80q10 -29 37 -51.5t66 -22.5h8q30 0 53.5 14.5zM217 701h137v-122h-137v122z" />
    <glyph glyph-name="h" unicode="h" horiz-adv-x="575" 
d="M417 479q40 -23 61.5 -61.5t21.5 -85.5v-332h-117v348q-9 23 -31 39t-54 16h-2q-30 0 -57 -15.5t-41 -40.5v-347h-117v710h117v-262q24 26 56 40t68 14h2q53 0 93 -23z" />
    <glyph glyph-name="hbar" unicode="&#x127;" horiz-adv-x="575" 
d="M417 479q40 -23 61.5 -61.5t21.5 -85.5v-332h-117v348q-9 23 -31 39t-54 16h-2q-30 0 -57 -15.5t-41 -40.5v-347h-117v565h-48v66h48v79h117v-79h111v-66h-111v-117q24 26 56 40t68 14h2q53 0 93 -23z" />
    <glyph glyph-name="i" unicode="i" horiz-adv-x="279" 
d="M81 489h117v-489h-117v489zM71 701h137v-122h-137v122z" />
    <glyph glyph-name="dotlessi" unicode="&#x131;" horiz-adv-x="279" 
d="M81 489h117v-489h-117v489z" />
    <glyph glyph-name="iacute" unicode="&#xed;" horiz-adv-x="279" 
d="M81 489h117v-489h-117v489zM167 710h127l-97 -140h-113z" />
    <glyph glyph-name="icircumflex" unicode="&#xee;" horiz-adv-x="279" 
d="M81 489h117v-489h-117v489zM203 570l-64 84l-64 -84h-106l100 140h140l100 -140h-106z" />
    <glyph glyph-name="idieresis" unicode="&#xef;" horiz-adv-x="279" 
d="M81 489h117v-489h-117v489zM-29 701h124v-120h-124v120zM184 701h123v-120h-123v120z" />
    <glyph glyph-name="i.loclTRK" horiz-adv-x="279" 
d="M81 489h117v-489h-117v489zM71 701h137v-122h-137v122z" />
    <glyph glyph-name="igrave" unicode="&#xec;" horiz-adv-x="279" 
d="M81 489h117v-489h-117v489zM-15 710h127l83 -140h-113z" />
    <glyph glyph-name="imacron" unicode="&#x12b;" horiz-adv-x="279" 
d="M81 489h117v-489h-117v489zM3 679h274v-90h-274v90z" />
    <glyph glyph-name="iogonek" unicode="&#x12f;" horiz-adv-x="279" 
d="M208 701v-122h-137v122h137zM81 489h117v-489l-26 -18q-49 -35 -49 -74v-2q0 -17 12 -28t31 -11h3q14 0 29 3v-58q-22 -12 -56 -12h-4q-50 0 -76 22.5t-26 63.5v3q0 27 20 57t56 51l5 3h-36v489z" />
    <glyph glyph-name="j" unicode="j" horiz-adv-x="279" 
d="M81 489h117v-629l-117 -75v704zM71 701h137v-122h-137v122z" />
    <glyph glyph-name="uni0237" unicode="&#x237;" horiz-adv-x="279" 
d="M81 489h117v-629l-117 -75v704z" />
    <glyph glyph-name="k" unicode="k" horiz-adv-x="542" 
d="M399 0l-201 266v-266h-116v710h116v-442l179 221h132l-183 -217l211 -272h-138z" />
    <glyph glyph-name="uni0137" unicode="&#x137;" horiz-adv-x="542" 
d="M399 0l-201 266v-266h-116v710h116v-442l179 221h132l-183 -217l211 -272h-138zM221 -62h106v-89l-105 -85h-1v174z" />
    <glyph glyph-name="l" unicode="l" horiz-adv-x="279" 
d="M81 710h117v-710h-117v710z" />
    <glyph glyph-name="lacute" unicode="&#x13a;" horiz-adv-x="279" 
d="M81 710h117v-710h-117v710zM166 902h128l-95 -129h-113z" />
    <glyph glyph-name="lcaron" unicode="&#x13e;" horiz-adv-x="380" 
d="M81 710h117v-710h-117v710zM299 710h93l-45 -193h-86z" />
    <glyph glyph-name="uni013C" unicode="&#x13c;" horiz-adv-x="279" 
d="M81 710h117v-710h-117v710zM86 -62h106v-89l-105 -85h-1v174z" />
    <glyph glyph-name="lslash" unicode="&#x142;" horiz-adv-x="359" 
d="M323 418l-85 -52v-366h-117v296l-85 -52v87l85 52v327h117v-257l85 52v-87z" />
    <glyph glyph-name="m" unicode="m" horiz-adv-x="826" 
d="M707.5 453.5q43.5 -47.5 43.5 -121.5v-332h-117v351q-9 23 -28.5 37t-46.5 14h-2q-25 0 -47.5 -13.5t-35.5 -37.5v-351h-116v351q-9 23 -28.5 37t-46.5 14h-2q-25 0 -47.5 -13t-35.5 -37v-352h-117v489h110v-47q50 59 124 59h2q43 0 76 -17.5t54 -49.5q29 32 66 49.5
t75 17.5h2q74 0 117.5 -47.5z" />
    <glyph glyph-name="n" unicode="n" horiz-adv-x="573" 
d="M415 479q40 -23 61.5 -61.5t21.5 -85.5v-332h-117v348q-9 23 -31 39t-54 16h-2q-29 0 -55 -14t-41 -38v-351h-117v489h110v-47q24 28 58 44t71 16h2q53 0 93 -23z" />
    <glyph glyph-name="nacute" unicode="&#x144;" horiz-adv-x="573" 
d="M415 479q40 -23 61.5 -61.5t21.5 -85.5v-332h-117v348q-9 23 -31 39t-54 16h-2q-29 0 -55 -14t-41 -38v-351h-117v489h110v-47q24 28 58 44t71 16h2q53 0 93 -23zM319 710h127l-97 -140h-113z" />
    <glyph glyph-name="ncaron" unicode="&#x148;" horiz-adv-x="573" 
d="M415 479q40 -23 61.5 -61.5t21.5 -85.5v-332h-117v348q-9 23 -31 39t-54 16h-2q-29 0 -55 -14t-41 -38v-351h-117v489h110v-47q24 28 58 44t71 16h2q53 0 93 -23zM462 710l-100 -140h-140l-100 140h106l64 -84l64 84h106z" />
    <glyph glyph-name="uni0146" unicode="&#x146;" horiz-adv-x="573" 
d="M415 479q40 -23 61.5 -61.5t21.5 -85.5v-332h-117v348q-9 23 -31 39t-54 16h-2q-29 0 -55 -14t-41 -38v-351h-117v489h110v-47q24 28 58 44t71 16h2q53 0 93 -23zM236 -62h106v-89l-105 -85h-1v174z" />
    <glyph glyph-name="eng" unicode="&#x14b;" horiz-adv-x="573" 
d="M415 479q40 -23 61.5 -61.5t21.5 -85.5v-471l-117 -76v563q-9 23 -31 39t-54 16h-2q-29 0 -55 -14t-41 -38v-351h-117v489h110v-47q24 28 58 44t71 16h2q53 0 93 -23z" />
    <glyph glyph-name="ntilde" unicode="&#xf1;" horiz-adv-x="573" 
d="M415 479q40 -23 61.5 -61.5t21.5 -85.5v-332h-117v348q-9 23 -31 39t-54 16h-2q-29 0 -55 -14t-41 -38v-351h-117v489h110v-47q24 28 58 44t71 16h2q53 0 93 -23zM147.5 671.5q23.5 33.5 71.5 33.5q32 0 74 -22l21 -11q30 -16 46 -16q13 0 20.5 13t8.5 36h71
q-3 -128 -95 -128q-36 0 -75 21l-21 12q-15 8 -23.5 11.5t-18.5 3.5q-14 0 -23 -13t-11 -35h-71q2 61 25.5 94.5z" />
    <glyph glyph-name="o" unicode="o" horiz-adv-x="567" 
d="M163.5 15.5q-53.5 30.5 -85.5 87.5t-32 133v17q0 76 32 133t85.5 87.5t116.5 30.5h7q63 0 116.5 -30.5t85.5 -87.5t32 -133v-17q0 -76 -32 -133t-85.5 -87.5t-116.5 -30.5h-7q-63 0 -116.5 30.5zM287 83q41 0 69.5 23t38.5 52q4 20 4 87t-4 86q-10 29 -38.5 52t-69.5 23
h-7q-41 0 -69.5 -23t-38.5 -52q-4 -28 -4 -86q0 -57 4 -87q10 -29 38.5 -52t69.5 -23h7z" />
    <glyph glyph-name="oacute" unicode="&#xf3;" horiz-adv-x="567" 
d="M163.5 15.5q-53.5 30.5 -85.5 87.5t-32 133v17q0 76 32 133t85.5 87.5t116.5 30.5h7q63 0 116.5 -30.5t85.5 -87.5t32 -133v-17q0 -76 -32 -133t-85.5 -87.5t-116.5 -30.5h-7q-63 0 -116.5 30.5zM287 83q41 0 69.5 23t38.5 52q4 20 4 87t-4 86q-10 29 -38.5 52t-69.5 23
h-7q-41 0 -69.5 -23t-38.5 -52q-4 -28 -4 -86q0 -57 4 -87q10 -29 38.5 -52t69.5 -23h7zM310 710h127l-97 -140h-113z" />
    <glyph glyph-name="ocircumflex" unicode="&#xf4;" horiz-adv-x="567" 
d="M163.5 15.5q-53.5 30.5 -85.5 87.5t-32 133v17q0 76 32 133t85.5 87.5t116.5 30.5h7q63 0 116.5 -30.5t85.5 -87.5t32 -133v-17q0 -76 -32 -133t-85.5 -87.5t-116.5 -30.5h-7q-63 0 -116.5 30.5zM287 83q41 0 69.5 23t38.5 52q4 20 4 87t-4 86q-10 29 -38.5 52t-69.5 23
h-7q-41 0 -69.5 -23t-38.5 -52q-4 -28 -4 -86q0 -57 4 -87q10 -29 38.5 -52t69.5 -23h7zM347 570l-64 84l-64 -84h-106l100 140h140l100 -140h-106z" />
    <glyph glyph-name="odieresis" unicode="&#xf6;" horiz-adv-x="567" 
d="M163.5 15.5q-53.5 30.5 -85.5 87.5t-32 133v17q0 76 32 133t85.5 87.5t116.5 30.5h7q63 0 116.5 -30.5t85.5 -87.5t32 -133v-17q0 -76 -32 -133t-85.5 -87.5t-116.5 -30.5h-7q-63 0 -116.5 30.5zM287 83q41 0 69.5 23t38.5 52q4 20 4 87t-4 86q-10 29 -38.5 52t-69.5 23
h-7q-41 0 -69.5 -23t-38.5 -52q-4 -28 -4 -86q0 -57 4 -87q10 -29 38.5 -52t69.5 -23h7zM115 701h124v-120h-124v120zM328 701h123v-120h-123v120z" />
    <glyph glyph-name="ograve" unicode="&#xf2;" horiz-adv-x="567" 
d="M163.5 15.5q-53.5 30.5 -85.5 87.5t-32 133v17q0 76 32 133t85.5 87.5t116.5 30.5h7q63 0 116.5 -30.5t85.5 -87.5t32 -133v-17q0 -76 -32 -133t-85.5 -87.5t-116.5 -30.5h-7q-63 0 -116.5 30.5zM287 83q41 0 69.5 23t38.5 52q4 20 4 87t-4 86q-10 29 -38.5 52t-69.5 23
h-7q-41 0 -69.5 -23t-38.5 -52q-4 -28 -4 -86q0 -57 4 -87q10 -29 38.5 -52t69.5 -23h7zM128 710h127l83 -140h-113z" />
    <glyph glyph-name="ohungarumlaut" unicode="&#x151;" horiz-adv-x="567" 
d="M163.5 15.5q-53.5 30.5 -85.5 87.5t-32 133v17q0 76 32 133t85.5 87.5t116.5 30.5h7q63 0 116.5 -30.5t85.5 -87.5t32 -133v-17q0 -76 -32 -133t-85.5 -87.5t-116.5 -30.5h-7q-63 0 -116.5 30.5zM287 83q41 0 69.5 23t38.5 52q4 20 4 87t-4 86q-10 29 -38.5 52t-69.5 23
h-7q-41 0 -69.5 -23t-38.5 -52q-4 -28 -4 -86q0 -57 4 -87q10 -29 38.5 -52t69.5 -23h7zM214 710h110l-92 -140h-101zM402 710h109l-92 -140h-100z" />
    <glyph glyph-name="omacron" unicode="&#x14d;" horiz-adv-x="567" 
d="M163.5 15.5q-53.5 30.5 -85.5 87.5t-32 133v17q0 76 32 133t85.5 87.5t116.5 30.5h7q63 0 116.5 -30.5t85.5 -87.5t32 -133v-17q0 -76 -32 -133t-85.5 -87.5t-116.5 -30.5h-7q-63 0 -116.5 30.5zM287 83q41 0 69.5 23t38.5 52q4 20 4 87t-4 86q-10 29 -38.5 52t-69.5 23
h-7q-41 0 -69.5 -23t-38.5 -52q-4 -28 -4 -86q0 -57 4 -87q10 -29 38.5 -52t69.5 -23h7zM146 679h274v-90h-274v90z" />
    <glyph glyph-name="oslash" unicode="&#xf8;" horiz-adv-x="567" 
d="M504.5 352q16.5 -45 16.5 -99v-17q0 -76 -32 -133t-85.5 -87.5t-116.5 -30.5h-7q-76 0 -134 41l-21 -26h-65l47 61q-29 33 -45 77.5t-16 97.5v17q0 76 32 133t85.5 87.5t116.5 30.5h7q75 0 133 -41l20 26h65l-46 -60q29 -32 45.5 -77zM176 149l181 233q-31 24 -70 24h-7
q-41 0 -69.5 -23t-38.5 -52q-4 -28 -4 -86q0 -57 4 -87q2 -6 4 -9zM399 245q0 67 -4 86l-4 11l-182 -234q30 -25 71 -25h7q41 0 69.5 23t38.5 52q4 20 4 87z" />
    <glyph glyph-name="otilde" unicode="&#xf5;" horiz-adv-x="567" 
d="M163.5 15.5q-53.5 30.5 -85.5 87.5t-32 133v17q0 76 32 133t85.5 87.5t116.5 30.5h7q63 0 116.5 -30.5t85.5 -87.5t32 -133v-17q0 -76 -32 -133t-85.5 -87.5t-116.5 -30.5h-7q-63 0 -116.5 30.5zM287 83q41 0 69.5 23t38.5 52q4 20 4 87t-4 86q-10 29 -38.5 52t-69.5 23
h-7q-41 0 -69.5 -23t-38.5 -52q-4 -28 -4 -86q0 -57 4 -87q10 -29 38.5 -52t69.5 -23h7zM138.5 671.5q23.5 33.5 71.5 33.5q32 0 74 -22l21 -11q30 -16 46 -16q13 0 20.5 13t8.5 36h71q-3 -128 -95 -128q-36 0 -75 21l-21 12q-15 8 -23.5 11.5t-18.5 3.5q-14 0 -23 -13
t-11 -35h-71q2 61 25.5 94.5z" />
    <glyph glyph-name="oe" unicode="&#x153;" horiz-adv-x="890" 
d="M512 217q0 -7 -2 -23l2 -28q8 -36 38.5 -62t73.5 -26h6q32 0 56.5 16t37.5 43h114q-22 -74 -79.5 -113t-130.5 -39h-5q-49 0 -93.5 19.5t-76.5 56.5q-32 -37 -76.5 -56.5t-93.5 -19.5h-7q-62 0 -114.5 30.5t-84 87.5t-31.5 133v17q0 76 31.5 133t84 87.5t114.5 30.5h7
q49 0 93 -19.5t76 -55.5q31 36 74.5 55.5t91.5 19.5h6q60 0 110.5 -29t80.5 -83t30 -125q0 -23 -3 -50h-330zM510 294h221v30q-7 36 -35.5 61.5t-70.5 25.5h-5q-42 0 -71 -25.5t-37 -59.5zM391 245q0 69 -4 86q-9 29 -37 52t-67 23h-7q-39 0 -66.5 -22.5t-37.5 -52.5
q-4 -28 -4 -86q0 -57 4 -87q10 -30 37.5 -52.5t66.5 -22.5h7q39 0 67 23t37 52q4 19 4 87z" />
    <glyph glyph-name="p" unicode="p" horiz-adv-x="583" 
d="M432 471.5q47 -30.5 75 -87t28 -131.5v-18q0 -75 -28 -131.5t-75 -86.5t-103 -30h-7q-75 0 -124 51v-238h-117v689h110v-45q25 28 58.5 43t72.5 15h7q56 0 103 -30.5zM413 245q0 57 -4 83q-11 30 -39 52.5t-69 22.5h-7q-32 0 -56.5 -14.5t-39.5 -36.5v-215
q15 -22 39.5 -36.5t56.5 -14.5h7q41 0 69 22t39 52q4 30 4 85z" />
    <glyph glyph-name="thorn" unicode="&#xfe;" horiz-adv-x="583" 
d="M432 471.5q47 -30.5 75 -87t28 -131.5v-18q0 -75 -28 -131.5t-75 -86.5t-103 -30h-7q-75 0 -124 51v-238h-117v910h117v-259q49 51 124 51h7q56 0 103 -30.5zM413 245q0 57 -4 83q-11 30 -39 52.5t-69 22.5h-7q-32 0 -56.5 -14.5t-39.5 -36.5v-215q15 -22 39.5 -36.5
t56.5 -14.5h7q41 0 69 22t39 52q4 30 4 85z" />
    <glyph glyph-name="q" unicode="q" horiz-adv-x="583" 
d="M502 489v-689h-117v238q-49 -51 -124 -51h-7q-56 0 -103 30t-75 86.5t-28 131.5v18q0 75 28 131.5t75 87t103 30.5h7q39 0 72.5 -15t58.5 -43v45h110zM345.5 100.5q24.5 14.5 39.5 36.5v215q-15 22 -39.5 36.5t-56.5 14.5h-7q-41 0 -69 -22.5t-39 -52.5q-4 -26 -4 -83
q0 -55 4 -85q11 -30 39 -52t69 -22h7q32 0 56.5 14.5z" />
    <glyph glyph-name="r" unicode="r" horiz-adv-x="370" 
d="M332 489v-110q-14 2 -28 2q-31 0 -60 -13.5t-46 -37.5v-330h-117v489h110v-58q48 60 119 60q14 0 22 -2z" />
    <glyph glyph-name="racute" unicode="&#x155;" horiz-adv-x="370" 
d="M332 489v-110q-14 2 -28 2q-31 0 -60 -13.5t-46 -37.5v-330h-117v489h110v-58q48 60 119 60q14 0 22 -2zM236 710h127l-97 -140h-113z" />
    <glyph glyph-name="rcaron" unicode="&#x159;" horiz-adv-x="370" 
d="M332 489v-110q-14 2 -28 2q-31 0 -60 -13.5t-46 -37.5v-330h-117v489h110v-58q48 60 119 60q14 0 22 -2zM378 710l-100 -140h-140l-100 140h106l64 -84l64 84h106z" />
    <glyph glyph-name="uni0157" unicode="&#x157;" horiz-adv-x="370" 
d="M332 489v-110q-14 2 -28 2q-31 0 -60 -13.5t-46 -37.5v-330h-117v489h110v-58q48 60 119 60q14 0 22 -2zM86 -62h106v-89l-105 -85h-1v174z" />
    <glyph glyph-name="s" unicode="s" horiz-adv-x="431" 
d="M127 5.5q-41 20.5 -63.5 56t-22.5 78.5h105q1 -30 22 -49t53 -19h1q32 0 49.5 19t15.5 50q-4 11 -19 22.5t-48 30.5l-77 41q-40 22 -64 52t-24 75v2q0 39 20.5 71t56 50.5t78.5 18.5h4q55 0 96 -26.5t64 -64.5l-75 -53q-37 56 -83 56h-2q-26 0 -41.5 -15.5t-13.5 -40.5
q4 -11 18.5 -21t45.5 -27l69 -37q46 -24 71 -55.5t25 -80.5v-2q0 -42 -21 -77t-59 -55t-86 -20h-2q-52 0 -93 20.5z" />
    <glyph glyph-name="sacute" unicode="&#x15b;" horiz-adv-x="431" 
d="M127 5.5q-41 20.5 -63.5 56t-22.5 78.5h105q1 -30 22 -49t53 -19h1q32 0 49.5 19t15.5 50q-4 11 -19 22.5t-48 30.5l-77 41q-40 22 -64 52t-24 75v2q0 39 20.5 71t56 50.5t78.5 18.5h4q55 0 96 -26.5t64 -64.5l-75 -53q-37 56 -83 56h-2q-26 0 -41.5 -15.5t-13.5 -40.5
q4 -11 18.5 -21t45.5 -27l69 -37q46 -24 71 -55.5t25 -80.5v-2q0 -42 -21 -77t-59 -55t-86 -20h-2q-52 0 -93 20.5zM244 710h127l-97 -140h-113z" />
    <glyph glyph-name="scaron" unicode="&#x161;" horiz-adv-x="431" 
d="M127 5.5q-41 20.5 -63.5 56t-22.5 78.5h105q1 -30 22 -49t53 -19h1q32 0 49.5 19t15.5 50q-4 11 -19 22.5t-48 30.5l-77 41q-40 22 -64 52t-24 75v2q0 39 20.5 71t56 50.5t78.5 18.5h4q55 0 96 -26.5t64 -64.5l-75 -53q-37 56 -83 56h-2q-26 0 -41.5 -15.5t-13.5 -40.5
q4 -11 18.5 -21t45.5 -27l69 -37q46 -24 71 -55.5t25 -80.5v-2q0 -42 -21 -77t-59 -55t-86 -20h-2q-52 0 -93 20.5zM386 710l-100 -140h-140l-100 140h106l64 -84l64 84h106z" />
    <glyph glyph-name="scedilla" unicode="&#x15f;" horiz-adv-x="431" 
d="M363 219.5q25 -31.5 25 -80.5v-2q0 -59 -39 -101t-102 -49l-19 -49q38 -6 60.5 -28.5t22.5 -57.5v-3q0 -44 -30.5 -68t-83.5 -24h-4q-22 0 -44.5 6t-38.5 17v54q31 -22 74 -22h4q20 0 32 10t12 25v8q0 15 -14 24.5t-37 9.5h-36l41 98q-65 10 -105 52.5t-40 100.5h105
q1 -30 22 -49t53 -19h1q32 0 49.5 19t15.5 50q-4 11 -19 22.5t-48 30.5l-77 41q-40 22 -64 52t-24 75v2q0 39 20.5 71t56 50.5t78.5 18.5h4q55 0 96 -26.5t64 -64.5l-75 -53q-37 56 -83 56h-2q-26 0 -41.5 -15.5t-13.5 -40.5q4 -11 18.5 -21t45.5 -27l69 -37
q46 -24 71 -55.5z" />
    <glyph glyph-name="uni0219" unicode="&#x219;" horiz-adv-x="431" 
d="M127 5.5q-41 20.5 -63.5 56t-22.5 78.5h105q1 -30 22 -49t53 -19h1q32 0 49.5 19t15.5 50q-4 11 -19 22.5t-48 30.5l-77 41q-40 22 -64 52t-24 75v2q0 39 20.5 71t56 50.5t78.5 18.5h4q55 0 96 -26.5t64 -64.5l-75 -53q-37 56 -83 56h-2q-26 0 -41.5 -15.5t-13.5 -40.5
q4 -11 18.5 -21t45.5 -27l69 -37q46 -24 71 -55.5t25 -80.5v-2q0 -42 -21 -77t-59 -55t-86 -20h-2q-52 0 -93 20.5zM168 -62h106v-89l-105 -85h-1v174z" />
    <glyph glyph-name="germandbls" unicode="&#xdf;" horiz-adv-x="603" 
d="M513 321q34 -48 34 -108v-7q0 -62 -26.5 -110.5t-75 -75t-111.5 -26.5h-6q-22 0 -44.5 3t-36.5 8v95q27 -9 61 -9h6q46 0 77 21.5t39 52.5q3 15 3 44t-3 44q-8 31 -43.5 54.5t-84.5 23.5h-35v91h26q35 0 61.5 18t34.5 43q2 18 2 39q0 22 -2 40q-9 25 -34.5 42.5
t-60.5 17.5h-6q-38 0 -65.5 -22.5t-27.5 -55.5v-544h-117v530q0 52 27.5 94.5t75.5 66.5t107 24h6q57 0 105 -23t75.5 -63.5t27.5 -90.5v-8q0 -43 -21.5 -79t-59.5 -58q58 -24 92 -72z" />
    <glyph glyph-name="t" unicode="t" horiz-adv-x="353" 
d="M308 401h-78v-401h-116v401h-66v88h66v109l116 76v-185h78v-88z" />
    <glyph glyph-name="tbar" unicode="&#x167;" horiz-adv-x="353" 
d="M315 212h-85v-212h-116v212h-75v66h75v123h-66v88h66v109l116 76v-185h78v-88h-78v-123h85v-66z" />
    <glyph glyph-name="tcaron" unicode="&#x165;" horiz-adv-x="413" 
d="M308 401h-78v-401h-116v401h-66v88h66v109l116 76v-185h78v-88zM338 765h93l-45 -193h-86z" />
    <glyph glyph-name="uni0163" unicode="&#x163;" horiz-adv-x="353" 
d="M204 0l-25 -62q38 -6 60.5 -28.5t22.5 -57.5v-3q0 -44 -30.5 -68t-83.5 -24h-4q-22 0 -44.5 6t-38.5 17v54q31 -22 74 -22h4q20 0 32 10t12 25v8q0 15 -14 24.5t-37 9.5h-36l46 111h-28v401h-66v88h66v109l116 76v-185h78v-88h-78v-401h-26z" />
    <glyph glyph-name="uni021B" unicode="&#x21b;" horiz-adv-x="353" 
d="M308 401h-78v-401h-116v401h-66v88h66v109l116 76v-185h78v-88zM118 -62h106v-89l-105 -85h-1v174z" />
    <glyph glyph-name="u" unicode="u" horiz-adv-x="571" 
d="M489 489v-489h-110v45q-24 -27 -57 -42.5t-70 -15.5h-2q-52 0 -92 23t-61.5 61.5t-21.5 85.5v332h116v-349q9 -23 31 -38.5t55 -15.5h2q28 0 53 13.5t40 36.5v353h117z" />
    <glyph glyph-name="uacute" unicode="&#xfa;" horiz-adv-x="571" 
d="M489 489v-489h-110v45q-24 -27 -57 -42.5t-70 -15.5h-2q-52 0 -92 23t-61.5 61.5t-21.5 85.5v332h116v-349q9 -23 31 -38.5t55 -15.5h2q28 0 53 13.5t40 36.5v353h117zM310 710h127l-97 -140h-113z" />
    <glyph glyph-name="ucircumflex" unicode="&#xfb;" horiz-adv-x="571" 
d="M489 489v-489h-110v45q-24 -27 -57 -42.5t-70 -15.5h-2q-52 0 -92 23t-61.5 61.5t-21.5 85.5v332h116v-349q9 -23 31 -38.5t55 -15.5h2q28 0 53 13.5t40 36.5v353h117zM346 570l-64 84l-64 -84h-106l100 140h140l100 -140h-106z" />
    <glyph glyph-name="udieresis" unicode="&#xfc;" horiz-adv-x="571" 
d="M489 489v-489h-110v45q-24 -27 -57 -42.5t-70 -15.5h-2q-52 0 -92 23t-61.5 61.5t-21.5 85.5v332h116v-349q9 -23 31 -38.5t55 -15.5h2q28 0 53 13.5t40 36.5v353h117zM114 701h124v-120h-124v120zM327 701h123v-120h-123v120z" />
    <glyph glyph-name="ugrave" unicode="&#xf9;" horiz-adv-x="571" 
d="M489 489v-489h-110v45q-24 -27 -57 -42.5t-70 -15.5h-2q-52 0 -92 23t-61.5 61.5t-21.5 85.5v332h116v-349q9 -23 31 -38.5t55 -15.5h2q28 0 53 13.5t40 36.5v353h117zM127 710h127l83 -140h-113z" />
    <glyph glyph-name="uhungarumlaut" unicode="&#x171;" horiz-adv-x="571" 
d="M489 489v-489h-110v45q-24 -27 -57 -42.5t-70 -15.5h-2q-52 0 -92 23t-61.5 61.5t-21.5 85.5v332h116v-349q9 -23 31 -38.5t55 -15.5h2q28 0 53 13.5t40 36.5v353h117zM213 710h110l-92 -140h-101zM401 710h109l-92 -140h-100z" />
    <glyph glyph-name="umacron" unicode="&#x16b;" horiz-adv-x="571" 
d="M489 489v-489h-110v45q-24 -27 -57 -42.5t-70 -15.5h-2q-52 0 -92 23t-61.5 61.5t-21.5 85.5v332h116v-349q9 -23 31 -38.5t55 -15.5h2q28 0 53 13.5t40 36.5v353h117zM145 679h274v-90h-274v90z" />
    <glyph glyph-name="uogonek" unicode="&#x173;" horiz-adv-x="571" 
d="M414 -92v-2q0 -17 12 -28t31 -11h3q14 0 29 3v-58q-23 -12 -56 -12h-4q-50 0 -76 22.5t-26 63.5v3q0 27 20 57t56 51l5 3h-29v45q-24 -27 -57 -42.5t-70 -15.5h-2q-52 0 -92 23t-61.5 61.5t-21.5 85.5v332h116v-349q9 -23 31 -38.5t55 -15.5h2q28 0 53 13.5t40 36.5v353
h117v-489l-26 -18q-49 -35 -49 -74z" />
    <glyph glyph-name="uring" unicode="&#x16f;" horiz-adv-x="571" 
d="M489 489v-489h-110v45q-24 -27 -57 -42.5t-70 -15.5h-2q-52 0 -92 23t-61.5 61.5t-21.5 85.5v332h116v-349q9 -23 31 -38.5t55 -15.5h2q28 0 53 13.5t40 36.5v353h117zM204.5 591q-32.5 31 -32.5 74t32.5 74t77.5 31t77.5 -31t32.5 -74t-32.5 -74t-77.5 -31t-77.5 31z
M317 630.5q15 14.5 15 34.5t-15 34.5t-35 14.5t-35 -14.5t-15 -34.5t15 -34.5t35 -14.5t35 14.5z" />
    <glyph glyph-name="v" unicode="v" horiz-adv-x="531" 
d="M517 489l-250 -514h-2l-252 514h124l133 -281l132 281h115z" />
    <glyph glyph-name="w" unicode="w" horiz-adv-x="738" 
d="M721 489l-214 -514h-2l-136 292l-135 -292h-2l-214 514h121l110 -276l124 276h1l126 -274l108 274h113z" />
    <glyph glyph-name="wacute" unicode="&#x1e83;" horiz-adv-x="738" 
d="M721 489l-214 -514h-2l-136 292l-135 -292h-2l-214 514h121l110 -276l124 276h1l126 -274l108 274h113zM401 710h127l-97 -140h-113z" />
    <glyph glyph-name="wcircumflex" unicode="&#x175;" horiz-adv-x="738" 
d="M721 489l-214 -514h-2l-136 292l-135 -292h-2l-214 514h121l110 -276l124 276h1l126 -274l108 274h113zM437 570l-64 84l-64 -84h-106l100 140h140l100 -140h-106z" />
    <glyph glyph-name="wdieresis" unicode="&#x1e85;" horiz-adv-x="738" 
d="M721 489l-214 -514h-2l-136 292l-135 -292h-2l-214 514h121l110 -276l124 276h1l126 -274l108 274h113zM205 701h124v-120h-124v120zM418 701h123v-120h-123v120z" />
    <glyph glyph-name="wgrave" unicode="&#x1e81;" horiz-adv-x="738" 
d="M721 489l-214 -514h-2l-136 292l-135 -292h-2l-214 514h121l110 -276l124 276h1l126 -274l108 274h113zM218 710h127l83 -140h-113z" />
    <glyph glyph-name="x" unicode="x" horiz-adv-x="562" 
d="M408 0l-129 187l-129 -187h-127l180 251l-170 238h131l120 -174l119 174h127l-167 -238l176 -251h-131z" />
    <glyph glyph-name="y" unicode="y" horiz-adv-x="544" 
d="M531 489l-325 -689h-115l125 264l-203 425h124l138 -299l141 299h115z" />
    <glyph glyph-name="yacute" unicode="&#xfd;" horiz-adv-x="544" 
d="M531 489l-325 -689h-115l125 264l-203 425h124l138 -299l141 299h115zM298 710h127l-97 -140h-113z" />
    <glyph glyph-name="ycircumflex" unicode="&#x177;" horiz-adv-x="544" 
d="M531 489l-325 -689h-115l125 264l-203 425h124l138 -299l141 299h115zM334 570l-64 84l-64 -84h-106l100 140h140l100 -140h-106z" />
    <glyph glyph-name="ydieresis" unicode="&#xff;" horiz-adv-x="544" 
d="M531 489l-325 -689h-115l125 264l-203 425h124l138 -299l141 299h115zM102 701h124v-120h-124v120zM315 701h123v-120h-123v120z" />
    <glyph glyph-name="ygrave" unicode="&#x1ef3;" horiz-adv-x="544" 
d="M531 489l-325 -689h-115l125 264l-203 425h124l138 -299l141 299h115zM115 710h127l83 -140h-113z" />
    <glyph glyph-name="z" unicode="z" horiz-adv-x="497" 
d="M467 487l-248 -388h235v-99h-424v2l250 389h-223v98h410v-2z" />
    <glyph glyph-name="zacute" unicode="&#x17a;" horiz-adv-x="497" 
d="M467 487l-248 -388h235v-99h-424v2l250 389h-223v98h410v-2zM282 710h127l-97 -140h-113z" />
    <glyph glyph-name="zcaron" unicode="&#x17e;" horiz-adv-x="497" 
d="M467 487l-248 -388h235v-99h-424v2l250 389h-223v98h410v-2zM424 710l-100 -140h-140l-100 140h106l64 -84l64 84h106z" />
    <glyph glyph-name="zdotaccent" unicode="&#x17c;" horiz-adv-x="497" 
d="M467 487l-248 -388h235v-99h-424v2l250 389h-223v98h410v-2zM186 701h137v-122h-137v122z" />
    <glyph glyph-name="ordfeminine" unicode="&#xaa;" horiz-adv-x="386" 
d="M336 680v-320h-86v25q-32 -34 -82 -34h-5q-36 0 -66.5 20t-49 57t-18.5 86v11q0 49 18.5 86.5t49 57.5t66.5 20h5q50 0 82 -34v25h86zM245 454v132q-19 26 -53 26h-5q-22 0 -38 -11.5t-22 -26.5q-3 -15 -3 -54q0 -30 3 -54q6 -15 22 -26.5t38 -11.5h5q34 0 53 26z" />
    <glyph glyph-name="ordmasculine" unicode="&#xba;" horiz-adv-x="379" 
d="M109 369q-36 20 -58 58t-22 88v10q0 50 22 88t58 58t78 20h5q42 0 78 -20t58 -58t22 -88v-10q0 -50 -22 -88t-58 -58t-78 -20h-5q-42 0 -78 20zM192 426q22 0 37.5 11.5t22.5 26.5q3 15 3 56q0 34 -3 55q-7 16 -22.5 27.5t-37.5 11.5h-5q-22 0 -38 -11.5t-22 -27.5
q-3 -13 -3 -55q0 -32 3 -56q6 -15 22 -26.5t38 -11.5h5z" />
    <glyph glyph-name="uni0394" unicode="&#x394;" horiz-adv-x="645" 
d="M636 0h-627l313 705h2zM469 102l-150 351l-150 -351h300z" />
    <glyph glyph-name="uni03A9" unicode="&#x3a9;" horiz-adv-x="711" 
d="M659 107v-107h-258v110q50 13 81.5 50t43.5 87q4 54 4 104t-4 104q-13 54 -56.5 93.5t-110.5 39.5h-7q-67 0 -110.5 -39.5t-56.5 -93.5q-3 -40 -3 -104q0 -63 3 -104q12 -49 44 -86.5t81 -50.5v-110h-258v107h99q-47 41 -72.5 102.5t-25.5 137.5v33q0 96 39.5 167.5
t108 109.5t151.5 38h7q83 0 151.5 -38t108 -109.5t39.5 -167.5v-33q0 -77 -26 -137.5t-73 -102.5h100z" />
    <glyph glyph-name="uni03BC" unicode="&#x3bc;" horiz-adv-x="577" 
d="M496 489v-489h-110v45q-21 -27 -50.5 -42.5t-62.5 -15.5h-2q-42 0 -73 23v-210h-117v689h117v-349q9 -23 31.5 -38.5t54.5 -15.5h2q28 0 53 14t40 38v351h117z" />
    <glyph glyph-name="pi" unicode="&#x3c0;" horiz-adv-x="643" 
d="M595 401h-78v-401h-116v401h-171v-401h-117v401h-65v88h547v-88z" />
    <glyph glyph-name="zero" unicode="0" horiz-adv-x="629" 
d="M184 20q-58 35 -92 101.5t-34 156.5v124q0 90 34 156.5t92 101.5t127 35h7q69 0 127 -35t92 -101.5t34 -156.5v-124q0 -90 -34 -156.5t-92 -101.5t-127 -35h-7q-69 0 -127 35zM318 86q49 0 82.5 31.5t43.5 69.5q4 33 4 153t-4 153q-10 38 -43.5 69.5t-82.5 31.5h-7
q-50 0 -83.5 -31.5t-43.5 -69.5q-3 -37 -3 -153q0 -115 3 -153q10 -38 43.5 -69.5t83.5 -31.5h7z" />
    <glyph glyph-name="zero.tf" horiz-adv-x="600" 
d="M171 20q-57 35 -90.5 101.5t-33.5 156.5v124q0 90 33.5 156.5t90.5 101.5t125 35h8q68 0 125 -35t90.5 -101.5t33.5 -156.5v-124q0 -90 -33.5 -156.5t-90.5 -101.5t-125 -35h-8q-68 0 -125 35zM304 86q48 0 80.5 31.5t42.5 69.5q3 38 3 153q0 116 -3 153
q-10 38 -42.5 69.5t-80.5 31.5h-8q-48 0 -80.5 -31.5t-42.5 -69.5q-3 -37 -3 -153q0 -115 3 -153q10 -38 42.5 -69.5t80.5 -31.5h8z" />
    <glyph glyph-name="one" unicode="1" horiz-adv-x="449" 
d="M299 0h-120v573h-104l52 107h172v-680z" />
    <glyph glyph-name="one.tf" horiz-adv-x="600" 
d="M381 0h-120v573h-104l52 107h172v-680z" />
    <glyph glyph-name="two" unicode="2" horiz-adv-x="580" 
d="M525 107v-107h-486v2l275 339q34 41 48 65t20 44q2 10 2 40q0 31 -2 41q-7 26 -33.5 46t-63.5 20h-4q-44 0 -72 -27t-33 -71h-119q5 58 35.5 102.5t79 69t107.5 24.5h6q59 0 108.5 -26t79 -72t29.5 -103v-2q0 -50 -21.5 -95.5t-78.5 -115.5l-143 -174h266z" />
    <glyph glyph-name="two.tf" horiz-adv-x="600" 
d="M537 107v-107h-486v2l275 339q34 41 48 65t20 44q2 10 2 40q0 31 -2 41q-7 26 -33.5 46t-63.5 20h-4q-44 0 -72 -27t-33 -71h-119q5 58 35.5 102.5t79 69t107.5 24.5h6q59 0 108.5 -26t79 -72t29.5 -103v-2q0 -50 -21.5 -95.5t-78.5 -115.5l-143 -174h266z" />
    <glyph glyph-name="three" unicode="3" horiz-adv-x="610" 
d="M460 393.5q41 -30.5 64.5 -77t23.5 -101.5v-8q0 -63 -32.5 -113.5t-87.5 -79.5t-119 -29h-5q-62 0 -116 25.5t-88.5 72t-38.5 105.5h121q5 -45 39 -75t83 -30h5q45 0 75.5 24t43.5 58q3 17 3 46q0 33 -3 46q-13 35 -42.5 58.5t-76.5 23.5h-126l159 234h-246v107h438v-2
l-166 -244q51 -10 92 -40.5z" />
    <glyph glyph-name="three.tf" horiz-adv-x="600" 
d="M455 393.5q41 -30.5 64.5 -77t23.5 -101.5v-8q0 -63 -32.5 -113.5t-87.5 -79.5t-119 -29h-5q-62 0 -116 25.5t-88.5 72t-38.5 105.5h121q5 -45 39 -75t83 -30h5q45 0 75.5 24t43.5 58q3 17 3 46q0 33 -3 46q-13 35 -42.5 58.5t-76.5 23.5h-126l159 234h-246v107h438v-2
l-166 -244q51 -10 92 -40.5z" />
    <glyph glyph-name="four" unicode="4" horiz-adv-x="636" 
d="M542 421v-421h-117v162h-385v2l243 516h122l-193 -411h213v152h117z" />
    <glyph glyph-name="four.tf" horiz-adv-x="600" 
d="M528 421v-421h-117v162h-385v2l243 516h122l-193 -411h213v152h117z" />
    <glyph glyph-name="five" unicode="5" horiz-adv-x="604" 
d="M187.5 10.5q-53.5 25.5 -88 72t-38.5 105.5h120q5 -45 39.5 -75t82.5 -30h6q45 0 75.5 23.5t43.5 58.5q3 17 3 46q0 33 -3 46q-14 35 -43.5 58.5t-75.5 23.5h-207v341h401v-107h-290v-135h110q60 0 111.5 -29t82 -80t30.5 -114v-8q0 -63 -32.5 -114t-87 -79.5
t-118.5 -28.5h-6q-62 0 -115.5 25.5z" />
    <glyph glyph-name="five.tf" horiz-adv-x="600" 
d="M183.5 10.5q-53.5 25.5 -88 72t-38.5 105.5h120q5 -45 39.5 -75t82.5 -30h6q45 0 75.5 23.5t43.5 58.5q3 17 3 46q0 33 -3 46q-14 35 -43.5 58.5t-75.5 23.5h-207v341h401v-107h-290v-135h110q60 0 111.5 -29t82 -80t30.5 -114v-8q0 -63 -32.5 -114t-87 -79.5
t-118.5 -28.5h-6q-62 0 -115.5 25.5z" />
    <glyph glyph-name="six" unicode="6" horiz-adv-x="590" 
d="M425.5 416q51.5 -29 82 -80t30.5 -115v-8q0 -65 -32 -117t-86.5 -81.5t-118.5 -29.5h-6q-63 0 -117.5 29.5t-87 81.5t-32.5 117v8q0 34 11 70t36 80l174 309h126l-138 -240q23 5 42 5h5q60 0 111.5 -29zM421 217q0 35 -2 49q-9 33 -41.5 59t-76.5 26h-6q-44 0 -76.5 -26
t-40.5 -59q-2 -14 -2 -49q0 -33 2 -49q8 -33 40.5 -59t76.5 -26h6q44 0 76.5 26t41.5 59q2 16 2 49z" />
    <glyph glyph-name="six.tf" horiz-adv-x="600" 
d="M427.5 416q51.5 -29 82 -80t30.5 -115v-8q0 -65 -32 -117t-86.5 -81.5t-118.5 -29.5h-6q-63 0 -117.5 29.5t-87 81.5t-32.5 117v8q0 34 11 70t36 80l174 309h126l-138 -240q23 5 42 5h5q60 0 111.5 -29zM423 217q0 35 -2 49q-9 33 -41.5 59t-76.5 26h-6q-44 0 -76.5 -26
t-40.5 -59q-2 -14 -2 -49q0 -33 2 -49q8 -33 40.5 -59t76.5 -26h6q44 0 76.5 26t41.5 59q2 16 2 49z" />
    <glyph glyph-name="seven" unicode="7" horiz-adv-x="563" 
d="M536 680v-2l-319 -678h-123l270 573h-310v107h482z" />
    <glyph glyph-name="seven.tf" horiz-adv-x="600" 
d="M563 680v-2l-319 -678h-123l270 573h-310v107h482z" />
    <glyph glyph-name="eight" unicode="8" horiz-adv-x="599" 
d="M516 292.5q28 -43.5 28 -95.5v-8q0 -58 -32 -104.5t-87 -73t-123 -26.5h-5q-68 0 -123 26.5t-86.5 73t-31.5 104.5v8q0 52 28 95t77 70q-37 24 -58 60.5t-21 80.5v7q0 53 28 95t77.5 66t109.5 24h5q60 0 109.5 -24t77.5 -66t28 -95v-7q0 -43 -20.5 -80t-57.5 -61
q49 -26 77 -69.5zM196 501q0 -23 2 -39q8 -24 35 -41t64 -17h5q38 0 64.5 17t35.5 41q2 16 2 39q0 25 -2 39q-9 24 -35.5 41t-64.5 17h-5q-37 0 -64 -17t-35 -41q-2 -14 -2 -39zM426 197q0 29 -2 43q-10 28 -43 50.5t-79 22.5h-5q-45 0 -78.5 -22.5t-43.5 -50.5
q-2 -14 -2 -43t2 -43q10 -28 43.5 -50t78.5 -22h5q46 0 79 22t43 50q2 14 2 43z" />
    <glyph glyph-name="eight.tf" horiz-adv-x="600" 
d="M518 292.5q28 -43.5 28 -95.5v-8q0 -58 -32 -104.5t-87 -73t-123 -26.5h-5q-68 0 -123 26.5t-86.5 73t-31.5 104.5v8q0 52 28 95t77 70q-37 24 -58 60.5t-21 80.5v7q0 53 28 95t77.5 66t109.5 24h5q60 0 109.5 -24t77.5 -66t28 -95v-7q0 -43 -20.5 -80t-57.5 -61
q49 -26 77 -69.5zM198 501q0 -23 2 -39q8 -24 35 -41t64 -17h5q38 0 64.5 17t35.5 41q2 16 2 39q0 25 -2 39q-9 24 -35.5 41t-64.5 17h-5q-37 0 -64 -17t-35 -41q-2 -14 -2 -39zM428 197q0 29 -2 43q-10 28 -43 50.5t-79 22.5h-5q-45 0 -78.5 -22.5t-43.5 -50.5
q-2 -14 -2 -43t2 -43q10 -28 43.5 -50t78.5 -22h5q46 0 79 22t43 50q2 14 2 43z" />
    <glyph glyph-name="nine" unicode="9" horiz-adv-x="582" 
d="M406.5 666q53.5 -29 85.5 -80t32 -115v-8q0 -34 -11 -70t-36 -80l-176 -313h-127l143 248q-23 -5 -40 -5h-5q-59 0 -109.5 28.5t-80.5 78.5t-30 113v8q0 64 31.5 115t85 80t116.5 29h6q62 0 115.5 -29zM406 467q0 33 -2 49q-8 31 -39.5 56t-73.5 25h-6q-43 0 -74 -24.5
t-40 -56.5q-2 -16 -2 -49t2 -49q9 -32 40 -56.5t74 -24.5h6q42 0 73.5 25t39.5 56q2 16 2 49z" />
    <glyph glyph-name="nine.tf" horiz-adv-x="600" 
d="M414.5 666q53.5 -29 85.5 -80t32 -115v-8q0 -34 -11 -70t-36 -80l-176 -313h-127l143 248q-23 -5 -40 -5h-5q-59 0 -109.5 28.5t-80.5 78.5t-30 113v8q0 64 31.5 115t85 80t116.5 29h6q62 0 115.5 -29zM414 467q0 33 -2 49q-8 31 -39.5 56t-73.5 25h-6q-43 0 -74 -24.5
t-40 -56.5q-2 -16 -2 -49t2 -49q9 -32 40 -56.5t74 -24.5h6q42 0 73.5 25t39.5 56q2 16 2 49z" />
    <glyph glyph-name="uni2080" unicode="&#x2080;" horiz-adv-x="443" 
d="M134.5 -87.5q-38.5 22.5 -61 64.5t-22.5 99v77q0 56 22.5 98.5t61 65t84.5 22.5h5q46 0 84.5 -22.5t61 -65t22.5 -98.5v-77q0 -57 -22.5 -99t-61 -64.5t-84.5 -22.5h-5q-46 0 -84.5 22.5zM224 -34q27 0 47 15.5t26 34.5q2 28 2 98t-2 98q-6 19 -26 35t-47 16h-5
q-26 0 -46.5 -15.5t-26.5 -35.5q-2 -15 -2 -98t2 -98q5 -19 25 -34.5t48 -15.5h5z" />
    <glyph glyph-name="uni2081" unicode="&#x2081;" horiz-adv-x="331" 
d="M222 -100h-90v347h-72l39 81h123v-428z" />
    <glyph glyph-name="uni2082" unicode="&#x2082;" horiz-adv-x="414" 
d="M362 -19v-81h-323v1l178 216q36 45 41 64q2 6 2 25t-2 25q-5 13 -20 23.5t-35 10.5h-3q-25 0 -42 -15.5t-20 -41.5h-89q5 58 46.5 94.5t101.5 36.5h4q39 0 72.5 -17t53.5 -47t20 -67v-1q0 -32 -14 -60.5t-51 -72.5l-78 -93h158z" />
    <glyph glyph-name="uni2083" unicode="&#x2083;" horiz-adv-x="435" 
d="M349 127q32 -38 32 -89v-5q0 -40 -22 -73t-58.5 -51.5t-78.5 -18.5h-4q-64 0 -111.5 37t-51.5 97h90q3 -26 23.5 -43t49.5 -17h4q25 0 43.5 13t25.5 31q2 5 2 27t-2 27q-8 19 -25.5 32t-43.5 13h-91l96 140h-149v81h294v-1l-104 -150q49 -12 81 -50z" />
    <glyph glyph-name="uni2084" unicode="&#x2084;" horiz-adv-x="455" 
d="M381 169v-269h-87v97h-255v2l159 329h93l-121 -250h124v91h87z" />
    <glyph glyph-name="uni2085" unicode="&#x2085;" horiz-adv-x="431" 
d="M104.5 -73q-47.5 37 -51.5 97h91q2 -26 23 -43t49 -17h4q26 0 44 12.5t26 31.5q2 12 2 27t-2 27q-9 20 -26 32.5t-44 12.5h-139v221h268v-81h-186v-66h69q38 0 72 -19t54.5 -51.5t20.5 -72.5v-5q0 -40 -22 -73t-58.5 -51.5t-78.5 -18.5h-4q-64 0 -111.5 37z" />
    <glyph glyph-name="uni2086" unicode="&#x2086;" horiz-adv-x="419" 
d="M297 166.5q34 -18.5 54.5 -51.5t20.5 -73v-6q0 -41 -22 -74.5t-58.5 -52.5t-78.5 -19h-4q-42 0 -78 19t-58 52.5t-22 74.5v6q0 21 6.5 43.5t25.5 54.5l110 188h94l-86 -145q14 2 19 2h4q39 0 73 -18.5zM284 39q0 24 -1 30q-6 17 -25 31.5t-45 14.5h-4q-25 0 -44.5 -14.5
t-23.5 -31.5q-2 -10 -2 -32q0 -18 2 -28q4 -17 23.5 -31t44.5 -14h4q26 0 45 14t25 31q1 4 1 30z" />
    <glyph glyph-name="uni2087" unicode="&#x2087;" horiz-adv-x="406" 
d="M375 326v-1l-207 -427h-92l169 347h-195v81h325z" />
    <glyph glyph-name="uni2088" unicode="&#x2088;" horiz-adv-x="421" 
d="M356 82q17 -26 17 -58v-6q0 -37 -21 -66.5t-58 -46.5t-82 -17h-3q-45 0 -82 17t-58 47t-21 66v6q0 32 17 58t47 43q-22 16 -34.5 38.5t-12.5 48.5v5q0 51 41 85.5t103 34.5h3q62 0 103 -34t41 -86v-5q0 -26 -12.5 -48.5t-34.5 -38.5q30 -17 47 -43zM149 210q0 -13 2 -23
q5 -12 21 -21.5t37 -9.5h3q22 0 37.5 9.5t20.5 21.5q0 3 0.5 8.5t0.5 14.5l-1 24q-5 11 -20.5 20.5t-37.5 9.5h-3q-21 0 -37 -9t-21 -21q-2 -12 -2 -24zM285 25l-1 25q-7 15 -27 26.5t-45 11.5h-3q-27 0 -46.5 -12t-24.5 -26q-2 -8 -2 -25t2 -27q6 -14 25.5 -26t45.5 -12h3
q26 0 45.5 12t26.5 26z" />
    <glyph glyph-name="uni2089" unicode="&#x2089;" horiz-adv-x="414" 
d="M284 318q36 -19 57.5 -52t21.5 -74v-5q0 -44 -32 -98l-111 -191h-95l89 150q-14 -2 -18 -2h-4q-38 0 -71.5 18.5t-53.5 51t-20 71.5v5q0 41 21.5 74t57.5 52t77 19h4q41 0 77 -19zM275 191q0 22 -1 29q-6 17 -24.5 30t-42.5 13h-4q-24 0 -42.5 -13.5t-23.5 -29.5
q-2 -14 -2 -32q0 -16 2 -28q5 -17 23 -30t43 -13h4q24 0 42.5 13.5t24.5 29.5q1 7 1 31z" />
    <glyph glyph-name="zero.dnom" horiz-adv-x="443" 
d="M134.5 12.5q-38.5 22.5 -61 64.5t-22.5 99v77q0 56 22.5 98.5t61 65t84.5 22.5h5q46 0 84.5 -22.5t61 -65t22.5 -98.5v-77q0 -57 -22.5 -99t-61 -64.5t-84.5 -22.5h-5q-46 0 -84.5 22.5zM224 66q27 0 47 15.5t26 34.5q2 28 2 98t-2 98q-6 19 -26 35t-47 16h-5
q-26 0 -46.5 -15.5t-26.5 -35.5q-2 -15 -2 -98t2 -98q5 -19 25 -34.5t48 -15.5h5z" />
    <glyph glyph-name="one.dnom" horiz-adv-x="331" 
d="M222 0h-90v347h-72l39 81h123v-428z" />
    <glyph glyph-name="two.dnom" horiz-adv-x="414" 
d="M362 81v-81h-323v1l178 216q36 45 41 64q2 6 2 25t-2 25q-5 13 -20 23.5t-35 10.5h-3q-25 0 -42 -15.5t-20 -41.5h-89q5 58 46.5 94.5t101.5 36.5h4q39 0 72.5 -17t53.5 -47t20 -67v-1q0 -32 -14 -60.5t-51 -72.5l-78 -93h158z" />
    <glyph glyph-name="three.dnom" horiz-adv-x="435" 
d="M349 227q32 -38 32 -89v-5q0 -40 -22 -73t-58.5 -51.5t-78.5 -18.5h-4q-64 0 -111.5 37t-51.5 97h90q3 -26 23.5 -43t49.5 -17h4q25 0 43.5 13t25.5 31q2 5 2 27t-2 27q-8 19 -25.5 32t-43.5 13h-91l96 140h-149v81h294v-1l-104 -150q49 -12 81 -50z" />
    <glyph glyph-name="four.dnom" horiz-adv-x="455" 
d="M381 269v-269h-87v97h-255v2l159 329h93l-121 -250h124v91h87z" />
    <glyph glyph-name="five.dnom" horiz-adv-x="431" 
d="M104.5 27q-47.5 37 -51.5 97h91q2 -26 23 -43t49 -17h4q26 0 44 12.5t26 31.5q2 12 2 27t-2 27q-9 20 -26 32.5t-44 12.5h-139v221h268v-81h-186v-66h69q38 0 72 -19t54.5 -51.5t20.5 -72.5v-5q0 -40 -22 -73t-58.5 -51.5t-78.5 -18.5h-4q-64 0 -111.5 37z" />
    <glyph glyph-name="six.dnom" horiz-adv-x="419" 
d="M297 266.5q34 -18.5 54.5 -51.5t20.5 -73v-6q0 -41 -22 -74.5t-58.5 -52.5t-78.5 -19h-4q-42 0 -78 19t-58 52.5t-22 74.5v6q0 21 6.5 43.5t25.5 54.5l110 188h94l-86 -145q14 2 19 2h4q39 0 73 -18.5zM284 139q0 24 -1 30q-6 17 -25 31.5t-45 14.5h-4q-25 0 -44.5 -14.5
t-23.5 -31.5q-2 -10 -2 -32q0 -18 2 -28q4 -17 23.5 -31t44.5 -14h4q26 0 45 14t25 31q1 4 1 30z" />
    <glyph glyph-name="seven.dnom" horiz-adv-x="406" 
d="M375 428v-1l-207 -427h-92l169 347h-195v81h325z" />
    <glyph glyph-name="eight.dnom" horiz-adv-x="421" 
d="M356 184q17 -26 17 -58v-6q0 -37 -21 -66.5t-58 -46.5t-82 -17h-3q-45 0 -82 17t-58 47t-21 66v6q0 32 17 58t47 43q-22 16 -34.5 38.5t-12.5 48.5v5q0 51 41 85.5t103 34.5h3q62 0 103 -34t41 -86v-5q0 -26 -12.5 -48.5t-34.5 -38.5q30 -17 47 -43zM149 312q0 -13 2 -23
q5 -12 21 -21.5t37 -9.5h3q22 0 37.5 9.5t20.5 21.5q0 3 0.5 8.5t0.5 14.5l-1 24q-5 11 -20.5 20.5t-37.5 9.5h-3q-21 0 -37 -9t-21 -21q-2 -12 -2 -24zM285 127l-1 25q-7 15 -27 26.5t-45 11.5h-3q-27 0 -46.5 -12t-24.5 -26q-2 -8 -2 -25t2 -27q6 -14 25.5 -26t45.5 -12h3
q26 0 45.5 12t26.5 26z" />
    <glyph glyph-name="nine.dnom" horiz-adv-x="414" 
d="M284 420q36 -19 57.5 -52t21.5 -74v-5q0 -44 -32 -98l-111 -191h-95l89 150q-14 -2 -18 -2h-4q-38 0 -71.5 18.5t-53.5 51t-20 71.5v5q0 41 21.5 74t57.5 52t77 19h4q41 0 77 -19zM275 293q0 22 -1 29q-6 17 -24.5 30t-42.5 13h-4q-24 0 -42.5 -13.5t-23.5 -29.5
q-2 -14 -2 -32q0 -16 2 -28q5 -17 23 -30t43 -13h4q24 0 42.5 13.5t24.5 29.5q1 7 1 31z" />
    <glyph glyph-name="zero.numr" horiz-adv-x="443" 
d="M134.5 264.5q-38.5 22.5 -61 64.5t-22.5 99v77q0 56 22.5 98.5t61 65t84.5 22.5h5q46 0 84.5 -22.5t61 -65t22.5 -98.5v-77q0 -57 -22.5 -99t-61 -64.5t-84.5 -22.5h-5q-46 0 -84.5 22.5zM224 318q27 0 47 15.5t26 34.5q2 28 2 98t-2 98q-6 19 -26 35t-47 16h-5
q-26 0 -46.5 -15.5t-26.5 -35.5q-2 -15 -2 -98t2 -98q5 -19 25 -34.5t48 -15.5h5z" />
    <glyph glyph-name="one.numr" horiz-adv-x="331" 
d="M222 252h-90v347h-72l39 81h123v-428z" />
    <glyph glyph-name="two.numr" horiz-adv-x="414" 
d="M362 333v-81h-323v1l178 216q36 45 41 64q2 6 2 25t-2 25q-5 13 -20 23.5t-35 10.5h-3q-25 0 -42 -15.5t-20 -41.5h-89q5 58 46.5 94.5t101.5 36.5h4q39 0 72.5 -17t53.5 -47t20 -67v-1q0 -32 -14 -60.5t-51 -72.5l-78 -93h158z" />
    <glyph glyph-name="three.numr" horiz-adv-x="435" 
d="M349 479q32 -38 32 -89v-5q0 -40 -22 -73t-58.5 -51.5t-78.5 -18.5h-4q-64 0 -111.5 37t-51.5 97h90q3 -26 23.5 -43t49.5 -17h4q25 0 43.5 13t25.5 31q2 5 2 27t-2 27q-8 19 -25.5 32t-43.5 13h-91l96 140h-149v81h294v-1l-104 -150q49 -12 81 -50z" />
    <glyph glyph-name="four.numr" horiz-adv-x="455" 
d="M381 521v-269h-87v97h-255v2l159 329h93l-121 -250h124v91h87z" />
    <glyph glyph-name="five.numr" horiz-adv-x="431" 
d="M104.5 279q-47.5 37 -51.5 97h91q2 -26 23 -43t49 -17h4q26 0 44 12.5t26 31.5q2 12 2 27t-2 27q-9 20 -26 32.5t-44 12.5h-139v221h268v-81h-186v-66h69q38 0 72 -19t54.5 -51.5t20.5 -72.5v-5q0 -40 -22 -73t-58.5 -51.5t-78.5 -18.5h-4q-64 0 -111.5 37z" />
    <glyph glyph-name="six.numr" horiz-adv-x="419" 
d="M297 518.5q34 -18.5 54.5 -51.5t20.5 -73v-6q0 -41 -22 -74.5t-58.5 -52.5t-78.5 -19h-4q-42 0 -78 19t-58 52.5t-22 74.5v6q0 21 6.5 43.5t25.5 54.5l110 188h94l-86 -145q14 2 19 2h4q39 0 73 -18.5zM284 391q0 24 -1 30q-6 17 -25 31.5t-45 14.5h-4q-25 0 -44.5 -14.5
t-23.5 -31.5q-2 -10 -2 -32q0 -18 2 -28q4 -17 23.5 -31t44.5 -14h4q26 0 45 14t25 31q1 4 1 30z" />
    <glyph glyph-name="seven.numr" horiz-adv-x="406" 
d="M375 680v-1l-207 -427h-92l169 347h-195v81h325z" />
    <glyph glyph-name="eight.numr" horiz-adv-x="421" 
d="M356 436q17 -26 17 -58v-6q0 -37 -21 -66.5t-58 -46.5t-82 -17h-3q-45 0 -82 17t-58 47t-21 66v6q0 32 17 58t47 43q-22 16 -34.5 38.5t-12.5 48.5v5q0 51 41 85.5t103 34.5h3q62 0 103 -34t41 -86v-5q0 -26 -12.5 -48.5t-34.5 -38.5q30 -17 47 -43zM149 564q0 -13 2 -23
q5 -12 21 -21.5t37 -9.5h3q22 0 37.5 9.5t20.5 21.5q0 3 0.5 8.5t0.5 14.5l-1 24q-5 11 -20.5 20.5t-37.5 9.5h-3q-21 0 -37 -9t-21 -21q-2 -12 -2 -24zM285 379l-1 25q-7 15 -27 26.5t-45 11.5h-3q-27 0 -46.5 -12t-24.5 -26q-2 -8 -2 -25t2 -27q6 -14 25.5 -26t45.5 -12h3
q26 0 45.5 12t26.5 26z" />
    <glyph glyph-name="nine.numr" horiz-adv-x="414" 
d="M284 672q36 -19 57.5 -52t21.5 -74v-5q0 -44 -32 -98l-111 -191h-95l89 150q-14 -2 -18 -2h-4q-38 0 -71.5 18.5t-53.5 51t-20 71.5v5q0 41 21.5 74t57.5 52t77 19h4q41 0 77 -19zM275 545q0 22 -1 29q-6 17 -24.5 30t-42.5 13h-4q-24 0 -42.5 -13.5t-23.5 -29.5
q-2 -14 -2 -32q0 -16 2 -28q5 -17 23 -30t43 -13h4q24 0 42.5 13.5t24.5 29.5q1 7 1 31z" />
    <glyph glyph-name="uni2070" unicode="&#x2070;" horiz-adv-x="443" 
d="M134.5 362.5q-38.5 22.5 -61 64.5t-22.5 99v77q0 56 22.5 98.5t61 65t84.5 22.5h5q46 0 84.5 -22.5t61 -65t22.5 -98.5v-77q0 -57 -22.5 -99t-61 -64.5t-84.5 -22.5h-5q-46 0 -84.5 22.5zM224 416q27 0 47 15.5t26 34.5q2 28 2 98t-2 98q-6 19 -26 35t-47 16h-5
q-26 0 -46.5 -15.5t-26.5 -35.5q-2 -15 -2 -98t2 -98q5 -19 25 -34.5t48 -15.5h5z" />
    <glyph glyph-name="uni00B9" unicode="&#xb9;" horiz-adv-x="331" 
d="M222 350h-90v347h-72l39 81h123v-428z" />
    <glyph glyph-name="uni00B2" unicode="&#xb2;" horiz-adv-x="414" 
d="M362 431v-81h-323v1l178 216q36 45 41 64q2 6 2 25t-2 25q-5 13 -20 23.5t-35 10.5h-3q-25 0 -42 -15.5t-20 -41.5h-89q5 58 46.5 94.5t101.5 36.5h4q39 0 72.5 -17t53.5 -47t20 -67v-1q0 -32 -14 -60.5t-51 -72.5l-78 -93h158z" />
    <glyph glyph-name="uni00B3" unicode="&#xb3;" horiz-adv-x="435" 
d="M349 577q32 -38 32 -89v-5q0 -40 -22 -73t-58.5 -51.5t-78.5 -18.5h-4q-64 0 -111.5 37t-51.5 97h90q3 -26 23.5 -43t49.5 -17h4q25 0 43.5 13t25.5 31q2 5 2 27t-2 27q-8 19 -25.5 32t-43.5 13h-91l96 140h-149v81h294v-1l-104 -150q49 -12 81 -50z" />
    <glyph glyph-name="uni2074" unicode="&#x2074;" horiz-adv-x="455" 
d="M381 619v-269h-87v97h-255v2l159 329h93l-121 -250h124v91h87z" />
    <glyph glyph-name="uni2075" unicode="&#x2075;" horiz-adv-x="431" 
d="M104.5 377q-47.5 37 -51.5 97h91q2 -26 23 -43t49 -17h4q26 0 44 12.5t26 31.5q2 12 2 27t-2 27q-9 20 -26 32.5t-44 12.5h-139v221h268v-81h-186v-66h69q38 0 72 -19t54.5 -51.5t20.5 -72.5v-5q0 -40 -22 -73t-58.5 -51.5t-78.5 -18.5h-4q-64 0 -111.5 37z" />
    <glyph glyph-name="uni2076" unicode="&#x2076;" horiz-adv-x="419" 
d="M297 616.5q34 -18.5 54.5 -51.5t20.5 -73v-6q0 -41 -22 -74.5t-58.5 -52.5t-78.5 -19h-4q-42 0 -78 19t-58 52.5t-22 74.5v6q0 21 6.5 43.5t25.5 54.5l110 188h94l-86 -145q14 2 19 2h4q39 0 73 -18.5zM284 489q0 24 -1 30q-6 17 -25 31.5t-45 14.5h-4q-25 0 -44.5 -14.5
t-23.5 -31.5q-2 -10 -2 -32q0 -18 2 -28q4 -17 23.5 -31t44.5 -14h4q26 0 45 14t25 31q1 4 1 30z" />
    <glyph glyph-name="uni2077" unicode="&#x2077;" horiz-adv-x="406" 
d="M375 778v-1l-207 -427h-92l169 347h-195v81h325z" />
    <glyph glyph-name="uni2078" unicode="&#x2078;" horiz-adv-x="421" 
d="M356 534q17 -26 17 -58v-6q0 -37 -21 -66.5t-58 -46.5t-82 -17h-3q-45 0 -82 17t-58 47t-21 66v6q0 32 17 58t47 43q-22 16 -34.5 38.5t-12.5 48.5v5q0 51 41 85.5t103 34.5h3q62 0 103 -34t41 -86v-5q0 -26 -12.5 -48.5t-34.5 -38.5q30 -17 47 -43zM149 662q0 -13 2 -23
q5 -12 21 -21.5t37 -9.5h3q22 0 37.5 9.5t20.5 21.5q0 3 0.5 8.5t0.5 14.5l-1 24q-5 11 -20.5 20.5t-37.5 9.5h-3q-21 0 -37 -9t-21 -21q-2 -12 -2 -24zM285 477l-1 25q-7 15 -27 26.5t-45 11.5h-3q-27 0 -46.5 -12t-24.5 -26q-2 -8 -2 -25t2 -27q6 -14 25.5 -26t45.5 -12h3
q26 0 45.5 12t26.5 26z" />
    <glyph glyph-name="uni2079" unicode="&#x2079;" horiz-adv-x="414" 
d="M284 770q36 -19 57.5 -52t21.5 -74v-5q0 -44 -32 -98l-111 -191h-95l89 150q-14 -2 -18 -2h-4q-38 0 -71.5 18.5t-53.5 51t-20 71.5v5q0 41 21.5 74t57.5 52t77 19h4q41 0 77 -19zM275 643q0 22 -1 29q-6 17 -24.5 30t-42.5 13h-4q-24 0 -42.5 -13.5t-23.5 -29.5
q-2 -14 -2 -32q0 -16 2 -28q5 -17 23 -30t43 -13h4q24 0 42.5 13.5t24.5 29.5q1 7 1 31z" />
    <glyph glyph-name="fraction" unicode="&#x2044;" horiz-adv-x="240" 
d="M323 680h99l-506 -680h-98z" />
    <glyph glyph-name="onehalf" unicode="&#xbd;" horiz-adv-x="984" 
d="M222 252h-90v347h-72l39 81h123v-428zM654 680h99l-506 -680h-98zM933 81v-81h-323v1l178 216q36 45 41 64q2 6 2 25t-2 25q-5 13 -20 23.5t-35 10.5h-3q-25 0 -42 -15.5t-20 -41.5h-89q5 58 46.5 94.5t101.5 36.5h4q39 0 72.5 -17t53.5 -47t20 -67v-1q0 -32 -14 -60.5
t-51 -72.5l-78 -93h158z" />
    <glyph glyph-name="onequarter" unicode="&#xbc;" horiz-adv-x="989" 
d="M222 252h-90v347h-72l39 81h123v-428zM654 680h99l-506 -680h-98zM915 269v-269h-87v97h-255v2l159 329h93l-121 -250h124v91h87z" />
    <glyph glyph-name="threequarters" unicode="&#xbe;" horiz-adv-x="1093" 
d="M349 479q32 -38 32 -89v-5q0 -40 -22 -73t-58.5 -51.5t-78.5 -18.5h-4q-64 0 -111.5 37t-51.5 97h90q3 -26 23.5 -43t49.5 -17h4q25 0 43.5 13t25.5 31q2 5 2 27t-2 27q-8 19 -25.5 32t-43.5 13h-91l96 140h-149v81h294v-1l-104 -150q49 -12 81 -50zM758 680h99
l-506 -680h-98zM1019 269v-269h-87v97h-255v2l159 329h93l-121 -250h124v91h87z" />
    <glyph glyph-name="oneeighth" unicode="&#x215b;" horiz-adv-x="992" 
d="M222 252h-90v347h-72l39 81h123v-428zM654 680h99l-506 -680h-98zM927 184q17 -26 17 -58v-6q0 -37 -21 -66.5t-58 -46.5t-82 -17h-3q-45 0 -82 17t-58 47t-21 66v6q0 32 17 58t47 43q-22 16 -34.5 38.5t-12.5 48.5v5q0 51 41 85.5t103 34.5h3q62 0 103 -34t41 -86v-5
q0 -26 -12.5 -48.5t-34.5 -38.5q30 -17 47 -43zM720 312q0 -13 2 -23q5 -12 21 -21.5t37 -9.5h3q22 0 37.5 9.5t20.5 21.5q0 3 0.5 8.5t0.5 14.5l-1 24q-5 11 -20.5 20.5t-37.5 9.5h-3q-21 0 -37 -9t-21 -21q-2 -12 -2 -24zM856 127l-1 25q-7 15 -27 26.5t-45 11.5h-3
q-27 0 -46.5 -12t-24.5 -26q-2 -8 -2 -25t2 -27q6 -14 25.5 -26t45.5 -12h3q26 0 45.5 12t26.5 26z" />
    <glyph glyph-name="threeeighths" unicode="&#x215c;" horiz-adv-x="1096" 
d="M349 479q32 -38 32 -89v-5q0 -40 -22 -73t-58.5 -51.5t-78.5 -18.5h-4q-64 0 -111.5 37t-51.5 97h90q3 -26 23.5 -43t49.5 -17h4q25 0 43.5 13t25.5 31q2 5 2 27t-2 27q-8 19 -25.5 32t-43.5 13h-91l96 140h-149v81h294v-1l-104 -150q49 -12 81 -50zM758 680h99
l-506 -680h-98zM1031 184q17 -26 17 -58v-6q0 -37 -21 -66.5t-58 -46.5t-82 -17h-3q-45 0 -82 17t-58 47t-21 66v6q0 32 17 58t47 43q-22 16 -34.5 38.5t-12.5 48.5v5q0 51 41 85.5t103 34.5h3q62 0 103 -34t41 -86v-5q0 -26 -12.5 -48.5t-34.5 -38.5q30 -17 47 -43z
M824 312q0 -13 2 -23q5 -12 21 -21.5t37 -9.5h3q22 0 37.5 9.5t20.5 21.5q0 3 0.5 8.5t0.5 14.5l-1 24q-5 11 -20.5 20.5t-37.5 9.5h-3q-21 0 -37 -9t-21 -21q-2 -12 -2 -24zM960 127l-1 25q-7 15 -27 26.5t-45 11.5h-3q-27 0 -46.5 -12t-24.5 -26q-2 -8 -2 -25t2 -27
q6 -14 25.5 -26t45.5 -12h3q26 0 45.5 12t26.5 26z" />
    <glyph glyph-name="fiveeighths" unicode="&#x215d;" horiz-adv-x="1092" 
d="M104.5 279q-47.5 37 -51.5 97h91q2 -26 23 -43t49 -17h4q26 0 44 12.5t26 31.5q2 12 2 27t-2 27q-9 20 -26 32.5t-44 12.5h-139v221h268v-81h-186v-66h69q38 0 72 -19t54.5 -51.5t20.5 -72.5v-5q0 -40 -22 -73t-58.5 -51.5t-78.5 -18.5h-4q-64 0 -111.5 37zM754 680h99
l-506 -680h-98zM1027 184q17 -26 17 -58v-6q0 -37 -21 -66.5t-58 -46.5t-82 -17h-3q-45 0 -82 17t-58 47t-21 66v6q0 32 17 58t47 43q-22 16 -34.5 38.5t-12.5 48.5v5q0 51 41 85.5t103 34.5h3q62 0 103 -34t41 -86v-5q0 -26 -12.5 -48.5t-34.5 -38.5q30 -17 47 -43z
M820 312q0 -13 2 -23q5 -12 21 -21.5t37 -9.5h3q22 0 37.5 9.5t20.5 21.5q0 3 0.5 8.5t0.5 14.5l-1 24q-5 11 -20.5 20.5t-37.5 9.5h-3q-21 0 -37 -9t-21 -21q-2 -12 -2 -24zM956 127l-1 25q-7 15 -27 26.5t-45 11.5h-3q-27 0 -46.5 -12t-24.5 -26q-2 -8 -2 -25t2 -27
q6 -14 25.5 -26t45.5 -12h3q26 0 45.5 12t26.5 26z" />
    <glyph glyph-name="seveneighths" unicode="&#x215e;" horiz-adv-x="1016" 
d="M375 680v-1l-207 -427h-92l169 347h-195v81h325zM678 680h99l-506 -680h-98zM951 184q17 -26 17 -58v-6q0 -37 -21 -66.5t-58 -46.5t-82 -17h-3q-45 0 -82 17t-58 47t-21 66v6q0 32 17 58t47 43q-22 16 -34.5 38.5t-12.5 48.5v5q0 51 41 85.5t103 34.5h3q62 0 103 -34
t41 -86v-5q0 -26 -12.5 -48.5t-34.5 -38.5q30 -17 47 -43zM744 312q0 -13 2 -23q5 -12 21 -21.5t37 -9.5h3q22 0 37.5 9.5t20.5 21.5q0 3 0.5 8.5t0.5 14.5l-1 24q-5 11 -20.5 20.5t-37.5 9.5h-3q-21 0 -37 -9t-21 -21q-2 -12 -2 -24zM880 127l-1 25q-7 15 -27 26.5
t-45 11.5h-3q-27 0 -46.5 -12t-24.5 -26q-2 -8 -2 -25t2 -27q6 -14 25.5 -26t45.5 -12h3q26 0 45.5 12t26.5 26z" />
    <glyph glyph-name="period" unicode="." horiz-adv-x="280" 
d="M73 137h134v-137h-134v137z" />
    <glyph glyph-name="comma" unicode="," horiz-adv-x="257" 
d="M73 137h111v-171l-110 -84h-1v255z" />
    <glyph glyph-name="colon" unicode=":" horiz-adv-x="300" 
d="M83 137h134v-137h-134v137zM83 489h134v-137h-134v137z" />
    <glyph glyph-name="semicolon" unicode=";" horiz-adv-x="300" 
d="M97 137h111v-171l-110 -84h-1v255zM83 489h134v-137h-134v137z" />
    <glyph glyph-name="ellipsis" unicode="&#x2026;" horiz-adv-x="810" 
d="M604 137h134v-137h-134v137zM338 137h134v-137h-134v137zM73 137h134v-137h-134v137z" />
    <glyph glyph-name="exclam" unicode="!" horiz-adv-x="345" 
d="M105 680h135l-18 -452h-99zM106 137h133v-137h-133v137z" />
    <glyph glyph-name="exclamdown" unicode="&#xa1;" horiz-adv-x="345" 
d="M239 352h-133v137h133v-137zM240 -191h-135l18 452h99z" />
    <glyph glyph-name="question" unicode="?" horiz-adv-x="504" 
d="M280 356q52 79 60 111q2 12 2 38q0 23 -2 35q-7 21 -30 37.5t-53 16.5h-4q-38 0 -62 -23.5t-29 -62.5h-120q4 54 33 96t75.5 65.5t100.5 23.5h6q55 0 101 -24t73.5 -66.5t27.5 -95.5v-7q0 -41 -20 -80t-68 -108l-58 -86h-116zM186 137h134v-137h-134v137z" />
    <glyph glyph-name="questiondown" unicode="&#xbf;" horiz-adv-x="461" 
d="M318 352h-133v137h133v-137zM224 133q-31 -48 -43.5 -72t-15.5 -40q-2 -10 -2 -37q0 -23 2 -35q6 -22 28.5 -38t53.5 -16h4q38 0 62.5 23.5t28.5 62.5h120q-4 -54 -33 -96t-75.5 -65.5t-100.5 -23.5h-5q-55 0 -101.5 24t-74 66.5t-27.5 95.5v7q0 41 20 79.5t69 108.5
l57 86h117z" />
    <glyph glyph-name="periodcentered" unicode="&#xb7;" horiz-adv-x="280" 
d="M73 388h134v-137h-134v137z" />
    <glyph glyph-name="bullet" unicode="&#x2022;" horiz-adv-x="550" 
d="M182.5 167.5q-42.5 24.5 -67 66.5t-24.5 92t24.5 92t67 66.5t92.5 24.5t92.5 -24.5t67.5 -66.5t25 -92t-25 -92t-67.5 -66.5t-92.5 -24.5t-92.5 24.5z" />
    <glyph glyph-name="asterisk" unicode="*" horiz-adv-x="530" 
d="M305 529l139 -51l-45 -78l-114 95l25 -146h-90l25 146l-114 -95l-45 78l140 51l-140 52l45 78l114 -95l-25 146h90l-25 -146l114 95l45 -78z" />
    <glyph glyph-name="numbersign" unicode="#" horiz-adv-x="700" 
d="M516 420l-34 -159h144l-13 -64h-144l-42 -197h-66l42 197h-167l-42 -197h-66l42 197h-143l13 64h143l34 159h-143l14 64h142l42 196h66l-42 -196h167l42 196h66l-42 -196h144l-13 -64h-144zM450 420h-167l-34 -159h167z" />
    <glyph glyph-name="slash" unicode="/" horiz-adv-x="490" 
d="M333 710h104l-290 -790h-104z" />
    <glyph glyph-name="backslash" unicode="\" horiz-adv-x="490" 
d="M343 -80l-290 790h104l290 -790h-104z" />
    <glyph glyph-name="parenleft" unicode="(" horiz-adv-x="346" 
d="M113.5 95q-30.5 90 -30.5 208v34q0 118 30.5 208t80.5 165h106q-39 -54 -65.5 -136t-33.5 -161q-2 -38 -2 -93t2 -93q7 -79 33.5 -161t65.5 -136h-106q-50 75 -80.5 165z" />
    <glyph glyph-name="parenright" unicode=")" horiz-adv-x="346" 
d="M232.5 544.5q30.5 -89.5 30.5 -207.5v-34q0 -118 -30.5 -207.5t-80.5 -165.5h-106q39 54 65.5 136t33.5 161q2 38 2 93t-2 93q-7 79 -33.5 161t-65.5 136h106q50 -76 80.5 -165.5z" />
    <glyph glyph-name="braceleft" unicode="{" horiz-adv-x="384" 
d="M213.5 363.5q-25.5 -31.5 -57.5 -42.5q32 -12 57.5 -43.5t25.5 -82.5v-131q6 -24 23 -36.5t50 -12.5h25v-84h-36q-84 0 -130.5 45.5t-46.5 152.5v108q-11 41 -55 41h-13v85h13q43 0 55 42v107q0 107 46.5 152.5t130.5 45.5h36v-85h-25q-33 0 -50 -12t-23 -36v-131
q0 -51 -25.5 -82.5z" />
    <glyph glyph-name="braceright" unicode="}" horiz-adv-x="384" 
d="M328 363v-86h-13q-44 0 -55 -41v-107q0 -107 -46.5 -152.5t-130.5 -45.5h-36v84h25q33 0 50 12.5t23 36.5v130q0 51 25.5 82.5t58.5 43.5q-33 12 -58.5 43.5t-25.5 82.5v131q-6 24 -23 36t-50 12h-25v85h36q84 0 130.5 -45.5t46.5 -152.5v-108q11 -41 55 -41h13z" />
    <glyph glyph-name="bracketleft" unicode="[" horiz-adv-x="382" 
d="M200 625v-610h130v-85h-239v780h239v-85h-130z" />
    <glyph glyph-name="bracketright" unicode="]" horiz-adv-x="382" 
d="M292 -70h-240v85h130v610h-130v85h240v-780z" />
    <glyph glyph-name="hyphen" unicode="-" horiz-adv-x="380" 
d="M60 352h260v-107h-260v107z" />
    <glyph glyph-name="uni00AD" unicode="&#xad;" horiz-adv-x="380" 
d="M60 352h260v-107h-260v107z" />
    <glyph glyph-name="endash" unicode="&#x2013;" horiz-adv-x="717" 
d="M70 348h577v-98h-577v98z" />
    <glyph glyph-name="emdash" unicode="&#x2014;" horiz-adv-x="1020" 
d="M70 348h880v-98h-880v98z" />
    <glyph glyph-name="underscore" unicode="_" horiz-adv-x="526" 
d="M-5 -76h536v-58h-536v58z" />
    <glyph glyph-name="quotesinglbase" unicode="&#x201a;" horiz-adv-x="254" 
d="M73 137h108v-169l-107 -82h-1v251z" />
    <glyph glyph-name="quotedblbase" unicode="&#x201e;" horiz-adv-x="444" 
d="M73 137h108v-169l-107 -82h-1v251zM264 137h108v-169l-107 -82h-1v251z" />
    <glyph glyph-name="quotedblleft" unicode="&#x201c;" horiz-adv-x="445" 
d="M181 440h-108v170l107 81h1v-251zM372 440h-108v170l107 81h1v-251z" />
    <glyph glyph-name="quotedblright" unicode="&#x201d;" horiz-adv-x="445" 
d="M73 680h108v-169l-107 -82h-1v251zM264 680h108v-169l-107 -82h-1v251z" />
    <glyph glyph-name="quoteleft" unicode="&#x2018;" horiz-adv-x="254" 
d="M181 440h-108v170l107 81h1v-251z" />
    <glyph glyph-name="quoteright" unicode="&#x2019;" horiz-adv-x="254" 
d="M73 680h108v-169l-107 -82h-1v251z" />
    <glyph glyph-name="guillemotleft" unicode="&#xab;" horiz-adv-x="602" 
d="M277 262l148 197h104l-151 -197l151 -197h-104zM66 262l148 197h104l-151 -197l151 -197h-104z" />
    <glyph glyph-name="guillemotright" unicode="&#xbb;" horiz-adv-x="602" 
d="M284 65l151 197l-151 197h104l148 -197l-148 -197h-104zM73 65l151 197l-151 197h104l148 -197l-148 -197h-104z" />
    <glyph glyph-name="guilsinglleft" unicode="&#x2039;" horiz-adv-x="391" 
d="M66 262l148 197h104l-151 -197l151 -197h-104z" />
    <glyph glyph-name="guilsinglright" unicode="&#x203a;" horiz-adv-x="391" 
d="M73 65l151 197l-151 197h104l148 -197l-148 -197h-104z" />
    <glyph glyph-name="quotedbl" unicode="&#x22;" horiz-adv-x="448" 
d="M73 680h108v-229h-108v229zM267 680h108v-229h-108v229z" />
    <glyph glyph-name="quotesingle" unicode="'" horiz-adv-x="254" 
d="M73 680h108v-229h-108v229z" />
    <glyph glyph-name="cent" unicode="&#xa2;" horiz-adv-x="510" 
d="M349 504v-320q56 5 116 55v-109q-19 -15 -50 -28t-66 -16v-86h-52v86q-59 6 -109 36.5t-79.5 85t-29.5 128.5v17q0 74 29.5 128.5t79.5 85t109 36.5v77h52v-77q35 -3 66 -16t50 -28v-109q-61 49 -116 54zM239 214.5q24 -20.5 58 -28.5v316q-34 -8 -58 -28t-34 -43
q-4 -19 -4 -86t4 -87q10 -23 34 -43.5z" />
    <glyph glyph-name="currency" unicode="&#xa4;" horiz-adv-x="695" 
d="M526 181l67 -67l-45 -45l-67 66q-58 -44 -134 -44q-75 0 -133 44l-67 -66l-45 45l66 66q-45 61 -45 135q0 75 45 134l-66 66l45 45l66 -66q59 45 134 45q74 0 135 -45l66 66l45 -45l-66 -66q44 -60 44 -134q0 -75 -45 -134zM419 188q33 20 52.5 53.5t19.5 73.5
q0 39 -19.5 73t-52.5 53.5t-72 19.5t-72 -19.5t-52.5 -53.5t-19.5 -73q0 -40 19.5 -73.5t52.5 -53.5t72 -20t72 20z" />
    <glyph glyph-name="dollar" unicode="$" horiz-adv-x="607" 
d="M494 296q36 -42 36 -109v-3q0 -51 -24 -94t-66.5 -70t-97.5 -33v-76h-52v75q-61 4 -109 30.5t-75.5 70.5t-28.5 98h111q3 -43 31.5 -71.5t70.5 -33.5v229l-72 40q-51 29 -84 68.5t-33 97.5v3q0 48 25.5 88t69 64t94.5 25v56h52v-59q56 -9 100.5 -41t69.5 -73l-83 -57
q-40 57 -87 73v-190l57 -32q59 -34 95 -76zM290 433v167q-36 -4 -58.5 -29t-20.5 -64q7 -19 24 -35.5t50 -35.5zM403 121.5q22 30.5 19 75.5q-13 45 -80 82v-197q39 9 61 39.5z" />
    <glyph glyph-name="Euro" unicode="&#x20ac;" horiz-adv-x="638" 
d="M328 549q-42 -38 -51 -96h207v-63h-210v-79h210v-63h-210q2 -42 22 -78t55.5 -57.5t83.5 -21.5h8q56 0 108 28v-107q-51 -27 -116 -27h-7q-70 0 -128 30.5t-96.5 89.5t-49.5 143h-74v63h70v4v50q0 17 1 25h-71v63h78q21 115 94.5 178.5t175.5 63.5h7q63 0 116 -29v-106
q-50 27 -108 27h-8q-65 0 -107 -38z" />
    <glyph glyph-name="florin" unicode="&#x192;" horiz-adv-x="487" 
d="M442 713q18 -2 25 -5l-20 -90q-12 2 -24 2q-42 0 -60 -31l-21 -100h74v-87h-93l-100 -469q-14 -68 -56.5 -100.5t-104.5 -32.5q-19 0 -37 2t-25 5l19 90q12 -2 25 -2q40 0 60 31l102 476h-70v87h88l20 93q14 68 56.5 100.5t104.5 32.5q19 0 37 -2z" />
    <glyph glyph-name="sterling" unicode="&#xa3;" horiz-adv-x="662" 
d="M272 159.5q-15 -29.5 -39 -52.5h356v-107h-486v107q24 1 43.5 22.5t25.5 46.5v107h-89v84h89v123q0 60 25.5 106.5t72.5 72.5t109 26h6q74 0 126.5 -33.5t81.5 -85.5l-80 -57q-55 81 -126 81h-3q-39 0 -65 -22.5t-32 -54.5v-156h168v-84h-168v-59q0 -35 -15 -64.5z" />
    <glyph glyph-name="yen" unicode="&#xa5;" horiz-adv-x="661" 
d="M408 335h125v-62h-139v-80h139v-63h-139v-130h-121v130h-145v63h145v80h-145v62h125l-209 345h137l154 -263l153 263h129z" />
    <glyph glyph-name="plus" unicode="+" horiz-adv-x="640" 
d="M567 275h-199v-200h-96v200h-199v94h199v200h96v-200h199v-94z" />
    <glyph glyph-name="minus" unicode="&#x2212;" horiz-adv-x="640" 
d="M73 369h494v-94h-494v94z" />
    <glyph glyph-name="multiply" unicode="&#xd7;" horiz-adv-x="606" 
d="M371 321l161 -162l-66 -66l-161 162l-163 -163l-69 69l163 163l-162 161l66 66l162 -161l162 162l69 -69z" />
    <glyph glyph-name="divide" unicode="&#xf7;" horiz-adv-x="640" 
d="M73 369h494v-94h-494v94zM251 561h137v-122h-137v122zM251 202h137v-122h-137v122z" />
    <glyph glyph-name="equal" unicode="=" horiz-adv-x="640" 
d="M73 267h494v-94h-494v94zM73 471h494v-94h-494v94z" />
    <glyph glyph-name="notequal" unicode="&#x2260;" horiz-adv-x="640" 
d="M388 377l-46 -110h225v-94h-265l-42 -98h-90l42 98h-139v94h179l46 110h-225v94h265l42 98h90l-42 -98h139v-94h-179z" />
    <glyph glyph-name="greater" unicode="&#x3e;" horiz-adv-x="640" 
d="M567 325v-4l-494 -211v94l297 118l-297 118v94z" />
    <glyph glyph-name="less" unicode="&#x3c;" horiz-adv-x="640" 
d="M567 440l-297 -118l297 -118v-94l-494 211v4l494 209v-94z" />
    <glyph glyph-name="greaterequal" unicode="&#x2265;" horiz-adv-x="640" 
d="M567 339v-4l-494 -190v93l265 98l-265 97v94zM73 93h494v-93h-494v93z" />
    <glyph glyph-name="lessequal" unicode="&#x2264;" horiz-adv-x="600" 
d="M553 433l-265 -97l265 -98v-93l-494 190v4l494 188v-94zM59 93h494v-93h-494v93z" />
    <glyph glyph-name="plusminus" unicode="&#xb1;" horiz-adv-x="640" 
d="M567 415v-94h-199v-166h-96v166h-199v94h199v166h96v-166h199zM73 93h494v-93h-494v93z" />
    <glyph glyph-name="approxequal" unicode="&#x2248;" horiz-adv-x="640" 
d="M397.5 349q-31.5 7 -76.5 21q-51 14 -80 20.5t-59 6.5q-65 0 -109 -45v95q17 17 45 27.5t64 10.5q30 0 59 -6.5t80 -20.5q45 -14 76.5 -21t61.5 -7q63 0 108 45v-95q-40 -38 -108 -38q-30 0 -61.5 7zM397.5 155q-31.5 7 -76.5 21q-51 14 -80 20.5t-59 6.5q-64 0 -109 -45
v95q17 17 45 27t64 10q30 0 62.5 -7t76.5 -20q49 -14 78.5 -20.5t59.5 -6.5q64 0 108 45v-95q-40 -38 -108 -38q-30 0 -61.5 7z" />
    <glyph glyph-name="logicalnot" unicode="&#xac;" horiz-adv-x="640" 
d="M567 369v-262h-97v168h-397v94h494z" />
    <glyph glyph-name="asciitilde" unicode="~" horiz-adv-x="657" 
d="M112 375q37 48 104 48q31 0 59 -11.5t66 -33.5q35 -19 55 -27.5t40 -8.5q33 0 48.5 20.5t17.5 60.5h81q-2 -72 -39 -120t-104 -48q-30 0 -57 11t-67 33q-32 18 -53.5 27.5t-42.5 9.5q-32 0 -47.5 -20.5t-18.5 -60.5h-81q2 72 39 120z" />
    <glyph glyph-name="asciicircum" unicode="^" horiz-adv-x="603" 
d="M425 284l-124 233l-125 -233h-85l209 396h4l209 -396h-88z" />
    <glyph glyph-name="infinity" unicode="&#x221e;" horiz-adv-x="790" 
d="M127 152q-37 20 -59 55t-22 77q0 44 22 79.5t60.5 55.5t85.5 20q52 0 96.5 -27.5t89.5 -77.5q48 51 89.5 78t98.5 27q69 0 112.5 -41.5t43.5 -108.5v-1q0 -46 -23 -81.5t-60.5 -55t-79.5 -19.5q-46 0 -89 24.5t-96 80.5q-45 -50 -89 -77.5t-100 -27.5q-43 0 -80 20z
M284.5 217q31.5 23 70.5 65q-40 48 -72 72.5t-75 24.5q-41 0 -65.5 -28t-24.5 -68q0 -38 27 -63.5t69 -25.5q39 0 70.5 23zM647.5 221.5q24.5 27.5 24.5 62.5q0 45 -25 70t-64 25q-35 0 -65.5 -20.5t-77.5 -71.5q48 -52 78.5 -72.5t65.5 -20.5q39 0 63.5 27.5z" />
    <glyph glyph-name="integral" unicode="&#x222b;" horiz-adv-x="487" 
d="M25 -198q-18 2 -25 5l19 90q12 -2 25 -2q40 0 60 31l140 656q14 68 56.5 100.5t104.5 32.5q19 0 37 -2t25 -5l-20 -90q-12 2 -24 2q-42 0 -60 -31l-140 -656q-14 -68 -56.5 -100.5t-104.5 -32.5q-19 0 -37 2z" />
    <glyph glyph-name="product" unicode="&#x220f;" horiz-adv-x="706" 
d="M615 -100h-123v673h-279v-673h-122v780h524v-780z" />
    <glyph glyph-name="summation" unicode="&#x2211;" horiz-adv-x="587" 
d="M14 -98l244 388l-244 388v2h534v-107h-335l179 -283l-179 -283h335v-107h-534v2z" />
    <glyph glyph-name="radical" unicode="&#x221a;" horiz-adv-x="622" 
d="M608 680l-341 -705h-2l-252 514h124l133 -281l224 472h114z" />
    <glyph glyph-name="uni00B5" unicode="&#xb5;" horiz-adv-x="577" 
d="M496 489v-489h-110v45q-21 -27 -50.5 -42.5t-62.5 -15.5h-2q-42 0 -73 23v-210h-117v689h117v-349q9 -23 31.5 -38.5t54.5 -15.5h2q28 0 53 14t40 38v351h117z" />
    <glyph glyph-name="partialdiff" unicode="&#x2202;" horiz-adv-x="573" 
d="M419 552q51 -74 79.5 -149t28.5 -131v-59q0 -65 -32.5 -117t-87 -81.5t-118.5 -29.5h-6q-63 0 -117.5 29.5t-87 81.5t-32.5 117v8q0 64 30.5 115t82 80t111.5 29h6q29 0 56 -8t48 -24q-34 71 -86.5 139.5t-116.5 127.5h126q65 -54 116 -128zM409 217q0 35 -2 49
q-9 33 -41.5 59t-76.5 26h-6q-44 0 -76.5 -26t-40.5 -59q-2 -14 -2 -49q0 -33 2 -49q8 -33 40.5 -59t76.5 -26h6q44 0 76.5 26t41.5 59q2 16 2 49z" />
    <glyph glyph-name="percent" unicode="%" horiz-adv-x="863" 
d="M142.5 404q-36.5 21 -58 57t-21.5 78t21.5 78t58 57t80.5 21t80.5 -21t58 -57t21.5 -78t-21.5 -78t-58 -57t-80.5 -21t-80.5 21zM634 680h98l-505 -680h-98zM270.5 470.5q20.5 14.5 26.5 33.5q2 22 2 35t-2 35q-6 19 -26.5 33.5t-47.5 14.5t-47.5 -14.5t-25.5 -33.5
q-1 -11 -1 -35t1 -35q5 -19 25.5 -33.5t47.5 -14.5t47.5 14.5zM559.5 7q-36.5 21 -58 57t-21.5 79q0 42 21.5 78t58 57t80.5 21t80.5 -21t58 -57t21.5 -78q0 -43 -21.5 -79t-58 -57t-80.5 -21t-80.5 21zM687.5 73.5q20.5 14.5 25.5 34.5q2 22 2 35q0 14 -2 34
q-5 20 -25.5 34.5t-47.5 14.5t-47.5 -14.5t-26.5 -34.5q-1 -10 -1 -34t1 -35q6 -20 26.5 -34.5t47.5 -14.5t47.5 14.5z" />
    <glyph glyph-name="perthousand" unicode="&#x2030;" horiz-adv-x="1232" 
d="M142.5 404q-36.5 21 -58 57t-21.5 78t21.5 78t58 57t80.5 21t80.5 -21t58 -57t21.5 -78t-21.5 -78t-58 -57t-80.5 -21t-80.5 21zM634 680h98l-505 -680h-98zM270.5 470.5q20.5 14.5 26.5 33.5q2 22 2 35t-2 35q-6 19 -26.5 33.5t-47.5 14.5t-47.5 -14.5t-25.5 -33.5
q-1 -11 -1 -35t1 -35q5 -19 25.5 -33.5t47.5 -14.5t47.5 14.5zM559.5 7q-36.5 21 -58 57t-21.5 79q0 42 21.5 78t58 57t80.5 21t80.5 -21t58 -57t21.5 -78q0 -43 -21.5 -79t-58 -57t-80.5 -21t-80.5 21zM927.5 7q-36.5 21 -58 57t-21.5 79q0 42 21.5 78t58 57t80.5 21
t80.5 -21t58 -57t21.5 -78q0 -43 -21.5 -79t-58 -57t-80.5 -21t-80.5 21zM687.5 73.5q20.5 14.5 25.5 34.5q2 22 2 35q0 14 -2 34q-5 20 -25.5 34.5t-47.5 14.5t-47.5 -14.5t-26.5 -34.5q-1 -10 -1 -34t1 -35q6 -20 26.5 -34.5t47.5 -14.5t47.5 14.5zM1055.5 73.5
q20.5 14.5 26.5 34.5q2 22 2 35q0 14 -2 34q-6 20 -26.5 34.5t-47.5 14.5t-47.5 -14.5t-25.5 -34.5q-1 -10 -1 -34t1 -35q5 -20 25.5 -34.5t47.5 -14.5t47.5 14.5z" />
    <glyph glyph-name="uni25CF" unicode="&#x25cf;" horiz-adv-x="806" 
d="M226 34.5q-81 47.5 -128.5 128.5t-47.5 177t47.5 177t128.5 128.5t177 47.5t177 -47.5t128.5 -128.5t47.5 -177t-47.5 -177t-128.5 -128.5t-177 -47.5t-177 47.5z" />
    <glyph glyph-name="circle" unicode="&#x25cb;" horiz-adv-x="806" 
d="M226 34.5q-81 47.5 -128.5 128.5t-47.5 177t47.5 177t128.5 128.5t177 47.5t177 -47.5t128.5 -128.5t47.5 -177t-47.5 -177t-128.5 -128.5t-177 -47.5t-177 47.5zM531.5 119q58.5 34 92.5 92.5t34 128.5t-34 128.5t-92.5 92.5t-128.5 34t-128.5 -34t-92.5 -92.5
t-34 -128.5t34 -128.5t92.5 -92.5t128.5 -34t128.5 34z" />
    <glyph glyph-name="lozenge" unicode="&#x25ca;" horiz-adv-x="667" 
d="M52 340l193 340h177l193 -340l-193 -340h-177zM480 340l-146 266l-148 -266l148 -266z" />
    <glyph glyph-name="at" unicode="@" horiz-adv-x="890" 
d="M647.5 589q87.5 -41 139.5 -119t52 -184q0 -73 -26 -126.5t-69 -81.5t-92 -28q-43 0 -73 18.5t-41 50.5q-26 -37 -62.5 -53t-73.5 -16q-70 0 -113 46.5t-43 118.5q0 59 25 111t70 83.5t103 31.5q37 0 69.5 -16t48.5 -47l10 47h74l-45 -213q-4 -17 -4 -36q0 -33 15.5 -51
t45.5 -18t54.5 24t39 65.5t14.5 90.5q0 88 -42 152t-112.5 97t-156.5 33q-93 0 -167.5 -42.5t-116.5 -117t-42 -168.5q0 -93 39.5 -163t110 -108t162.5 -38q38 0 76 7t65 19l20 -56q-63 -31 -161 -31q-112 0 -200.5 45.5t-138.5 129.5t-50 195t53 200t145 139t205 50
q105 0 192.5 -41zM477 141q27 23 41.5 59.5t14.5 77.5q0 46 -21.5 71.5t-60.5 25.5q-53 0 -86 -44.5t-33 -109.5q0 -48 21 -75.5t62 -27.5q35 0 62 23z" />
    <glyph glyph-name="ampersand" unicode="&#x26;" horiz-adv-x="666" 
d="M539 0l-66 70q-47 -42 -93 -63.5t-104 -21.5h-5q-62 0 -110.5 23t-75 61.5t-26.5 82.5v6q0 50 26.5 87.5t90.5 88.5l26 20l-23 24q-41 43 -57.5 80.5t-16.5 72.5v4q0 41 25 78t68.5 59t96.5 22h5q53 0 96.5 -22t68.5 -59t25 -78v-4q0 -36 -18.5 -71.5t-66.5 -73.5
l-53 -42l129 -137l54 54h131l-122 -122l131 -139h-136zM233 587.5q-24 -22.5 -25 -61.5q5 -22 20.5 -45t48.5 -57l10 -11l34 27q60 48 67 86q0 38 -26 61t-63 23h-4q-38 0 -62 -22.5zM344 90q30 15 65 46l-142 150l-8 -6q-44 -36 -63.5 -58t-25.5 -43q-3 -44 29 -74t79 -30
h5q31 0 61 15z" />
    <glyph glyph-name="paragraph" unicode="&#xb6;" horiz-adv-x="694" 
d="M604 618h-56v-698h-78v698h-99v-698h-73v332h-32q-60 0 -110.5 25.5t-81 73t-30.5 111.5v8q0 64 30.5 111.5t81 73t110.5 25.5h338v-62z" />
    <glyph glyph-name="section" unicode="&#xa7;" horiz-adv-x="650" 
d="M528.5 339.5q30.5 -34.5 30.5 -83.5v-2q0 -46 -30 -82.5t-79 -51.5q46 -44 46 -100v-2q0 -39 -20.5 -71t-55.5 -50.5t-77 -18.5h-4q-55 0 -96 26t-64 65l76 53q20 -27 39 -40.5t42 -13.5h3q22 0 37.5 14t15.5 40q-7 20 -53 52l-136 90q-52 36 -82 70t-30 84v2
q0 46 30 82.5t79 51.5q-46 44 -46 100v2q0 39 20.5 71t55.5 50t77 18h4q56 0 96.5 -26t63.5 -64l-75 -53q-21 27 -40 40.5t-41 13.5h-4q-22 0 -37.5 -14t-15.5 -40q8 -21 54 -52l136 -91q50 -35 80.5 -69.5zM432.5 208q23.5 20 22.5 53q-7 18 -20 30.5t-44 33.5l-94 61h-20
q-36 0 -59.5 -20t-22.5 -53q7 -18 20 -30.5t44 -33.5l94 -61h21q35 0 58.5 20z" />
    <glyph glyph-name="copyright" unicode="&#xa9;" horiz-adv-x="800" 
d="M221 33q-82 48 -130 129.5t-48 177.5t48 177.5t130 129.5t179 48q96 0 178 -48t130.5 -130t48.5 -177t-48.5 -177t-130.5 -130t-178 -48q-97 0 -179 48zM553.5 74.5q70.5 41.5 111.5 112t41 153.5t-41 153.5t-111.5 112t-153.5 41.5t-153.5 -41.5t-112 -112t-41.5 -153.5
t41.5 -153.5t112 -112t153.5 -41.5t153.5 41.5zM302.5 146.5q-49.5 25.5 -78 74t-28.5 112.5v15q0 66 28.5 114t78 73t111.5 25h5q63 0 106 -22v-72q-40 20 -104 20h-4q-48 0 -80.5 -23t-46.5 -55q-4 -16 -4 -67q0 -52 4 -68q14 -32 46.5 -55.5t80.5 -23.5h4q59 0 104 21
v-72q-43 -22 -106 -22h-5q-62 0 -111.5 25.5z" />
    <glyph glyph-name="registered" unicode="&#xae;" horiz-adv-x="508" 
d="M355 668q46 -27 73.5 -73.5t27.5 -100.5t-27.5 -100.5t-73.5 -73.5t-101 -27t-101 27t-73.5 73.5t-27.5 100.5t27.5 100.5t73.5 73.5t101 27t101 -27zM335.5 352.5q37.5 22.5 59 60t21.5 81.5t-21.5 82t-59 60t-81.5 22t-81 -22t-59 -60t-22 -82t22 -81.5t59 -60
t81 -22.5t81.5 22.5zM327 498q-13 -16 -35 -22l59 -84h-50l-76 112v-112h-44v214h86q31 0 52 -18t21 -48v-3q0 -23 -13 -39zM266 505q13 0 21.5 7.5t8.5 21.5v3q0 15 -8.5 22.5t-21.5 7.5h-41v-62h41z" />
    <glyph glyph-name="trademark" unicode="&#x2122;" horiz-adv-x="867" 
d="M797 690v-385h-80v197l-112 -122h-1l-112 122v-197h-79v385h1l191 -204l190 204h2zM333 608h-105v-303h-82v303h-105v72h292v-72z" />
    <glyph glyph-name="degree" unicode="&#xb0;" horiz-adv-x="453" 
d="M149.5 445q-35.5 20 -56 54.5t-20.5 75.5t20.5 75.5t56 54.5t77.5 20t77 -20t55.5 -54.5t20.5 -75.5t-20.5 -75.5t-55.5 -54.5t-77 -20t-77.5 20zM280 520.5q22 22.5 22 54.5t-22 55t-53 23q-32 0 -54 -23t-22 -55t22 -54.5t54 -22.5q31 0 53 22.5z" />
    <glyph glyph-name="bar" unicode="|" horiz-adv-x="364" 
d="M136 710h92v-790h-92v790z" />
    <glyph glyph-name="brokenbar" unicode="&#xa6;" horiz-adv-x="364" 
d="M136 710h92v-333h-92v333zM136 253h92v-333h-92v333z" />
    <glyph glyph-name="dagger" unicode="&#x2020;" horiz-adv-x="571" 
d="M481 399h-149v-479h-92v479h-149v90h149v221h92v-221h149v-90z" />
    <glyph glyph-name="daggerdbl" unicode="&#x2021;" horiz-adv-x="571" 
d="M332 399v-150h149v-90h-149v-239h-92v239h-149v90h149v150h-149v90h149v221h92v-221h149v-90h-149z" />
    <glyph glyph-name="uni0308" unicode="&#x308;" 
d="M-410 701h124v-120h-124v120zM-197 701h123v-120h-123v120z" />
    <glyph glyph-name="uni0308.case" 
d="M-423 866h124v-119h-124v119zM-197 866h124v-119h-124v119z" />
    <glyph glyph-name="uni0307" unicode="&#x307;" 
d="M-210 701h137v-122h-137v122z" />
    <glyph glyph-name="uni0307.case" 
d="M-212 866h138v-119h-138v119z" />
    <glyph glyph-name="gravecomb" unicode="&#x300;" 
d="M-283 710h127l83 -140h-113z" />
    <glyph glyph-name="gravecomb.case" 
d="M-281 872h128l80 -129h-113z" />
    <glyph glyph-name="acutecomb" unicode="&#x301;" 
d="M-200 710h127l-97 -140h-113z" />
    <glyph glyph-name="acutecomb.case" 
d="M-201 872h128l-95 -129h-113z" />
    <glyph glyph-name="uni030B" unicode="&#x30b;" 
d="M-370 710h110l-92 -140h-101zM-182 710h109l-92 -140h-100z" />
    <glyph glyph-name="uni030B.case" 
d="M-351 872h103l-89 -129h-94zM-176 872h103l-89 -129h-94z" />
    <glyph glyph-name="uni030C.alt" 
d="M-166 710h93l-45 -193h-86z" />
    <glyph glyph-name="uni0302" unicode="&#x302;" 
d="M-179 570l-64 84l-64 -84h-106l100 140h140l100 -140h-106z" />
    <glyph glyph-name="uni0302.case" 
d="M-180 743l-61 76l-62 -76h-106l98 129h140l98 -129h-107z" />
    <glyph glyph-name="uni030C" unicode="&#x30c;" 
d="M-73 710l-100 -140h-140l-100 140h106l64 -84l64 84h106z" />
    <glyph glyph-name="uni030C.case" 
d="M-73 872l-98 -129h-140l-98 129h106l62 -76l61 76h107z" />
    <glyph glyph-name="uni0306" unicode="&#x306;" 
d="M-323 601.5q-39 38.5 -40 93.5h71q2 -24 21.5 -41t52.5 -17t52.5 17t21.5 41h71q-1 -55 -40 -93.5t-105 -38.5t-105 38.5z" />
    <glyph glyph-name="uni0306.case" 
d="M-316.5 766q-37.5 36 -39.5 88h67q3 -21 22.5 -38t52.5 -17t52 17t22 38h67q-2 -52 -39.5 -88t-101.5 -36q-65 0 -102.5 36z" />
    <glyph glyph-name="uni030A" unicode="&#x30a;" 
d="M-260.5 591q-32.5 31 -32.5 74t32.5 74t77.5 31t77.5 -31t32.5 -74t-32.5 -74t-77.5 -31t-77.5 31zM-148 630.5q15 14.5 15 34.5t-15 34.5t-35 14.5t-35 -14.5t-15 -34.5t15 -34.5t35 -14.5t35 14.5z" />
    <glyph glyph-name="uni030A.case" 
d="M-256 707.5q-32 30.5 -32 73.5t32 73.5t76 30.5t75.5 -30.5t31.5 -73.5t-31.5 -73.5t-75.5 -30.5t-76 30.5zM-146.5 747.5q14.5 14.5 14.5 33.5q0 20 -14.5 34t-33.5 14q-20 0 -34.5 -14t-14.5 -34t14.5 -34t34.5 -14q19 0 33.5 14.5z" />
    <glyph glyph-name="tildecomb" unicode="&#x303;" 
d="M-386.5 671.5q23.5 33.5 71.5 33.5q32 0 74 -22l21 -11q30 -16 46 -16q13 0 20.5 13t8.5 36h71q-3 -128 -95 -128q-36 0 -75 21l-21 12q-15 8 -23.5 11.5t-18.5 3.5q-14 0 -23 -13t-11 -35h-71q2 61 25.5 94.5z" />
    <glyph glyph-name="tildecomb.case" 
d="M-317 866q33 0 75 -20l20 -11q13 -6 25.5 -10.5t21.5 -4.5q15 0 21.5 11.5t8.5 34.5h72q-2 -60 -25 -91t-70 -31q-34 0 -76 22l-21 11q-24 13 -44 13q-15 0 -23 -12t-9 -34h-73q3 122 97 122z" />
    <glyph glyph-name="uni0304" unicode="&#x304;" 
d="M-347 679h274v-90h-274v90z" />
    <glyph glyph-name="uni0304.case" 
d="M-347 846h274v-89h-274v89z" />
    <glyph glyph-name="uni0312" unicode="&#x312;" 
d="M-179 701l105 85h1v-205h-106v120z" />
    <glyph glyph-name="uni0326" unicode="&#x326;" 
d="M-179 -62h106v-89l-105 -85h-1v174z" />
    <glyph glyph-name="uni0327" unicode="&#x327;" 
d="M-95.5 -90.5q22.5 -22.5 22.5 -57.5v-3q0 -44 -30.5 -68t-83.5 -24h-4q-22 0 -44.5 6t-38.5 17v54q31 -22 74 -22h4q20 0 32 10t12 25v8q0 15 -14 24.5t-37 9.5h-36l47 114h62l-26 -65q38 -6 60.5 -28.5z" />
    <glyph glyph-name="uni0328" unicode="&#x328;" 
d="M-209 -177.5q-26 22.5 -26 63.5v3q0 27 20 57t56 51l47 29l39 -26l-26 -18q-49 -35 -49 -74v-2q0 -17 12 -28t31 -11h3q14 0 29 3v-58q-23 -12 -56 -12h-4q-50 0 -76 22.5z" />
    <glyph glyph-name="acute" unicode="&#xb4;" horiz-adv-x="600" 
d="M278 710h127l-97 -140h-113z" />
    <glyph glyph-name="breve" unicode="&#x2d8;" horiz-adv-x="600" 
d="M198 601.5q-39 38.5 -40 93.5h71q2 -24 21.5 -41t52.5 -17t52.5 17t21.5 41h71q-1 -55 -40 -93.5t-105 -38.5t-105 38.5z" />
    <glyph glyph-name="caron" unicode="&#x2c7;" horiz-adv-x="600" 
d="M471 710l-100 -140h-140l-100 140h106l64 -84l64 84h106z" />
    <glyph glyph-name="cedilla" unicode="&#xb8;" horiz-adv-x="600" 
d="M378.5 -90.5q22.5 -22.5 22.5 -57.5v-3q0 -44 -30.5 -68t-83.5 -24h-4q-22 0 -44.5 6t-38.5 17v54q31 -22 74 -22h4q20 0 32 10t12 25v8q0 15 -14 24.5t-37 9.5h-36l47 114h62l-26 -65q38 -6 60.5 -28.5z" />
    <glyph glyph-name="circumflex" unicode="&#x2c6;" horiz-adv-x="600" 
d="M365 570l-64 84l-64 -84h-106l100 140h140l100 -140h-106z" />
    <glyph glyph-name="dieresis" unicode="&#xa8;" horiz-adv-x="600" 
d="M131 701h124v-120h-124v120zM344 701h123v-120h-123v120z" />
    <glyph glyph-name="dotaccent" unicode="&#x2d9;" horiz-adv-x="600" 
d="M231 701h137v-122h-137v122z" />
    <glyph glyph-name="grave" unicode="`" horiz-adv-x="600" 
d="M195 710h127l83 -140h-113z" />
    <glyph glyph-name="hungarumlaut" unicode="&#x2dd;" horiz-adv-x="600" 
d="M204 710h110l-92 -140h-101zM392 710h109l-92 -140h-100z" />
    <glyph glyph-name="macron" unicode="&#xaf;" horiz-adv-x="600" 
d="M163 679h274v-90h-274v90z" />
    <glyph glyph-name="ogonek" unicode="&#x2db;" horiz-adv-x="600" 
d="M245 -177.5q-26 22.5 -26 63.5v3q0 27 20 57t56 51l47 29l39 -26l-26 -18q-49 -35 -49 -74v-2q0 -17 12 -28t31 -11h3q14 0 29 3v-58q-23 -12 -56 -12h-4q-50 0 -76 22.5z" />
    <glyph glyph-name="ring" unicode="&#x2da;" horiz-adv-x="600" 
d="M223.5 591q-32.5 31 -32.5 74t32.5 74t77.5 31t77.5 -31t32.5 -74t-32.5 -74t-77.5 -31t-77.5 31zM336 630.5q15 14.5 15 34.5t-15 34.5t-35 14.5t-35 -14.5t-15 -34.5t15 -34.5t35 -14.5t35 14.5z" />
    <glyph glyph-name="tilde" unicode="&#x2dc;" horiz-adv-x="600" 
d="M156.5 671.5q23.5 33.5 71.5 33.5q32 0 74 -22l21 -11q30 -16 46 -16q13 0 20.5 13t8.5 36h71q-3 -128 -95 -128q-36 0 -75 21l-21 12q-15 8 -23.5 11.5t-18.5 3.5q-14 0 -23 -13t-11 -35h-71q2 61 25.5 94.5z" />
    <glyph glyph-name="uniE001" unicode="&#xe001;" horiz-adv-x="657" 
d="M516 88l-464 465v127h90v-88l463 -465v-127h-89v88z" />
    <glyph glyph-name="uniE002" horiz-adv-x="451" 
d="M271 230l-180 181v269h90v-230l179 -181v-269h-89v230z" />
    </font>
</defs>
</svg>
